  0
SECTION
  2
HEADER
  9
$ACADVER
  1
AC1027
  9
$ACADMAINTVER
 70
     8
  9
$DWGCODEPAGE
  3
ANSI_1252
  9
$LASTSAVEDBY
  1
Myra
  9
$REQUIREDVERSIONS
160
                 0
  9
$INSBASE
 10
0.0
 20
0.0
 30
0.0
  9
$EXTMIN
 10
13440.46689495824
 20
6955.471094794295
 30
-0.0000000000000076
  9
$EXTMAX
 10
16193.15197878119
 20
8838.207714059906
 30
0.0000000000000076
  9
$LIMMIN
 10
0.0
 20
0.0
  9
$LIMMAX
 10
420.0
 20
297.0
  9
$ORTHOMODE
 70
     0
  9
$REGENMODE
 70
     1
  9
$FILLMODE
 70
     1
  9
$QTEXTMODE
 70
     0
  9
$MIRRTEXT
 70
     0
  9
$LTSCALE
 40
1.0
  9
$ATTMODE
 70
     1
  9
$TEXTSIZE
 40
2.5
  9
$TRACEWID
 40
1.0
  9
$TEXTSTYLE
  7
Standard
  9
$CLAYER
  8
0
  9
$CELTYPE
  6
ByLayer
  9
$CECOLOR
 62
   256
  9
$CELTSCALE
 40
1.0
  9
$DISPSILH
 70
     0
  9
$DIMSCALE
 40
50.0
  9
$DIMASZ
 40
10.0
  9
$DIMEXO
 40
25.0
  9
$DIMDLI
 40
5.0
  9
$DIMRND
 40
0.0
  9
$DIMDLE
 40
10.0
  9
$DIMEXE
 40
10.0
  9
$DIMTP
 40
0.0
  9
$DIMTM
 40
0.0
  9
$DIMTXT
 40
15.0
  9
$DIMCEN
 40
1.0
  9
$DIMTSZ
 40
0.0
  9
$DIMTOL
 70
     0
  9
$DIMLIM
 70
     0
  9
$DIMTIH
 70
     1
  9
$DIMTOH
 70
     1
  9
$DIMSE1
 70
     0
  9
$DIMSE2
 70
     0
  9
$DIMTAD
 70
     0
  9
$DIMZIN
 70
     0
  9
$DIMBLK
  1

  9
$DIMASO
 70
     1
  9
$DIMSHO
 70
     1
  9
$DIMPOST
  1

  9
$DIMAPOST
  1

  9
$DIMALT
 70
     0
  9
$DIMALTD
 70
     2
  9
$DIMALTF
 40
25.4
  9
$DIMLFAC
 40
1.0
  9
$DIMTOFL
 70
     0
  9
$DIMTVP
 40
0.0
  9
$DIMTIX
 70
     0
  9
$DIMSOXD
 70
     0
  9
$DIMSAH
 70
     0
  9
$DIMBLK1
  1
ClosedBlank
  9
$DIMBLK2
  1

  9
$DIMSTYLE
  2
Maatvoering 2b detail 1-5 (x)
  9
$DIMCLRD
 70
     0
  9
$DIMCLRE
 70
     0
  9
$DIMCLRT
 70
     0
  9
$DIMTFAC
 40
1.0
  9
$DIMGAP
 40
20.0
  9
$DIMJUST
 70
     0
  9
$DIMSD1
 70
     0
  9
$DIMSD2
 70
     0
  9
$DIMTOLJ
 70
     1
  9
$DIMTZIN
 70
     0
  9
$DIMALTZ
 70
     0
  9
$DIMALTTZ
 70
     0
  9
$DIMUPT
 70
     0
  9
$DIMDEC
 70
     0
  9
$DIMTDEC
 70
     0
  9
$DIMALTU
 70
     2
  9
$DIMALTTD
 70
     2
  9
$DIMTXSTY
  7
Standard
  9
$DIMAUNIT
 70
     0
  9
$DIMADEC
 70
     0
  9
$DIMALTRND
 40
0.0
  9
$DIMAZIN
 70
     0
  9
$DIMDSEP
 70
    46
  9
$DIMATFIT
 70
     3
  9
$DIMFRAC
 70
     0
  9
$DIMLDRBLK
  1

  9
$DIMLUNIT
 70
     2
  9
$DIMLWD
 70
    -2
  9
$DIMLWE
 70
    -2
  9
$DIMTMOVE
 70
     0
  9
$DIMFXL
 40
100.0
  9
$DIMFXLON
 70
     0
  9
$DIMJOGANG
 40
0.7853981633974483
  9
$DIMTFILL
 70
     0
  9
$DIMTFILLCLR
 70
     0
  9
$DIMARCSYM
 70
     0
  9
$DIMLTYPE
  6

  9
$DIMLTEX1
  6

  9
$DIMLTEX2
  6

  9
$DIMTXTDIRECTION
 70
     0
  9
$LUNITS
 70
     2
  9
$LUPREC
 70
     1
  9
$SKETCHINC
 40
1.0
  9
$FILLETRAD
 40
4.0
  9
$AUNITS
 70
     0
  9
$AUPREC
 70
     0
  9
$MENU
  1
.
  9
$ELEVATION
 40
0.0
  9
$PELEVATION
 40
0.0
  9
$THICKNESS
 40
0.0
  9
$LIMCHECK
 70
     0
  9
$CHAMFERA
 40
0.0
  9
$CHAMFERB
 40
1.749166488146784
  9
$CHAMFERC
 40
0.0
  9
$CHAMFERD
 40
0.0
  9
$SKPOLY
 70
     0
  9
$TDCREATE
 40
2456693.409240938
  9
$TDUCREATE
 40
2456693.367574271
  9
$TDUPDATE
 40
2458540.462478808
  9
$TDUUPDATE
 40
2458540.420812141
  9
$TDINDWG
 40
11.0838507176
  9
$TDUSRTIMER
 40
11.0838498148
  9
$USRTIMER
 70
     1
  9
$ANGBASE
 50
0.0
  9
$ANGDIR
 70
     0
  9
$PDMODE
 70
     0
  9
$PDSIZE
 40
0.0
  9
$PLINEWID
 40
100.0
  9
$SPLFRAME
 70
     0
  9
$SPLINETYPE
 70
     6
  9
$SPLINESEGS
 70
     8
  9
$HANDSEED
  5
24001
  9
$SURFTAB1
 70
     6
  9
$SURFTAB2
 70
     6
  9
$SURFTYPE
 70
     6
  9
$SURFU
 70
     6
  9
$SURFV
 70
     6
  9
$UCSBASE
  2

  9
$UCSNAME
  2

  9
$UCSORG
 10
0.0
 20
0.0
 30
0.0
  9
$UCSXDIR
 10
1.0
 20
0.0
 30
0.0
  9
$UCSYDIR
 10
0.0
 20
1.0
 30
0.0
  9
$UCSORTHOREF
  2

  9
$UCSORTHOVIEW
 70
     0
  9
$UCSORGTOP
 10
0.0
 20
0.0
 30
0.0
  9
$UCSORGBOTTOM
 10
0.0
 20
0.0
 30
0.0
  9
$UCSORGLEFT
 10
0.0
 20
0.0
 30
0.0
  9
$UCSORGRIGHT
 10
0.0
 20
0.0
 30
0.0
  9
$UCSORGFRONT
 10
0.0
 20
0.0
 30
0.0
  9
$UCSORGBACK
 10
0.0
 20
0.0
 30
0.0
  9
$PUCSBASE
  2

  9
$PUCSNAME
  2

  9
$PUCSORG
 10
0.0
 20
0.0
 30
0.0
  9
$PUCSXDIR
 10
1.0
 20
0.0
 30
0.0
  9
$PUCSYDIR
 10
0.0
 20
1.0
 30
0.0
  9
$PUCSORTHOREF
  2

  9
$PUCSORTHOVIEW
 70
     0
  9
$PUCSORGTOP
 10
0.0
 20
0.0
 30
0.0
  9
$PUCSORGBOTTOM
 10
0.0
 20
0.0
 30
0.0
  9
$PUCSORGLEFT
 10
0.0
 20
0.0
 30
0.0
  9
$PUCSORGRIGHT
 10
0.0
 20
0.0
 30
0.0
  9
$PUCSORGFRONT
 10
0.0
 20
0.0
 30
0.0
  9
$PUCSORGBACK
 10
0.0
 20
0.0
 30
0.0
  9
$USERI1
 70
     0
  9
$USERI2
 70
     0
  9
$USERI3
 70
     0
  9
$USERI4
 70
     0
  9
$USERI5
 70
     0
  9
$USERR1
 40
0.0
  9
$USERR2
 40
0.0
  9
$USERR3
 40
0.0
  9
$USERR4
 40
0.0
  9
$USERR5
 40
0.0
  9
$WORLDVIEW
 70
     1
  9
$SHADEDGE
 70
     3
  9
$SHADEDIF
 70
    70
  9
$TILEMODE
 70
     1
  9
$MAXACTVP
 70
    64
  9
$PINSBASE
 10
0.0
 20
0.0
 30
0.0
  9
$PLIMCHECK
 70
     0
  9
$PEXTMIN
 10
28.68718261718749
 20
19.6363175392151
 30
0.0
  9
$PEXTMAX
 10
258.1846435546875
 20
176.7268578529358
 30
0.0
  9
$PLIMMIN
 10
-5.027069091796875
 20
-6.805083274841308
  9
$PLIMMAX
 10
291.89892578125
 20
203.1682443618775
  9
$UNITMODE
 70
     0
  9
$VISRETAIN
 70
     1
  9
$PLINEGEN
 70
     0
  9
$PSLTSCALE
 70
     1
  9
$TREEDEPTH
 70
  3020
  9
$CMLSTYLE
  2
Standard
  9
$CMLJUST
 70
     0
  9
$CMLSCALE
 40
20.0
  9
$PROXYGRAPHICS
 70
     1
  9
$MEASUREMENT
 70
     1
  9
$CELWEIGHT
370
    -1
  9
$ENDCAPS
280
     0
  9
$JOINSTYLE
280
     0
  9
$LWDISPLAY
290
     0
  9
$INSUNITS
 70
     4
  9
$HYPERLINKBASE
  1

  9
$STYLESHEET
  1
DUOFOR kleur.ctb
  9
$XEDIT
290
     1
  9
$CEPSNTYPE
380
     0
  9
$PSTYLEMODE
290
     1
  9
$FINGERPRINTGUID
  2
{6BD09C20-B97A-4C30-9D96-FA597952C05B}
  9
$VERSIONGUID
  2
{6412251E-2555-42B6-BDB2-96FB2ECA1CC3}
  9
$EXTNAMES
290
     1
  9
$PSVPSCALE
 40
0.0
  9
$OLESTARTUP
290
     0
  9
$SORTENTS
280
   127
  9
$INDEXCTL
280
     0
  9
$HIDETEXT
280
     1
  9
$XCLIPFRAME
280
     2
  9
$HALOGAP
280
     0
  9
$OBSCOLOR
 70
   257
  9
$OBSLTYPE
280
     0
  9
$INTERSECTIONDISPLAY
280
     0
  9
$INTERSECTIONCOLOR
 70
   257
  9
$DIMASSOC
280
     2
  9
$PROJECTNAME
  1

  9
$CAMERADISPLAY
290
     0
  9
$LENSLENGTH
 40
50.0
  9
$CAMERAHEIGHT
 40
0.0
  9
$STEPSPERSEC
 40
2.0
  9
$STEPSIZE
 40
6.0
  9
$3DDWFPREC
 40
2.0
  9
$PSOLWIDTH
 40
5.0
  9
$PSOLHEIGHT
 40
80.0
  9
$LOFTANG1
 40
1.570796326794896
  9
$LOFTANG2
 40
1.570796326794896
  9
$LOFTMAG1
 40
0.0
  9
$LOFTMAG2
 40
0.0
  9
$LOFTPARAM
 70
     7
  9
$LOFTNORMALS
280
     1
  9
$LATITUDE
 40
37.795
  9
$LONGITUDE
 40
-122.394
  9
$NORTHDIRECTION
 40
0.0
  9
$TIMEZONE
 70
 -8000
  9
$LIGHTGLYPHDISPLAY
280
     1
  9
$TILEMODELIGHTSYNCH
280
     1
  9
$CMATERIAL
347
EC
  9
$SOLIDHIST
280
     1
  9
$SHOWHIST
280
     1
  9
$DWFFRAME
280
     2
  9
$DGNFRAME
280
     0
  9
$REALWORLDSCALE
290
     1
  9
$INTERFERECOLOR
 62
     1
  9
$INTERFEREOBJVS
345
F9
  9
$INTERFEREVPVS
346
F6
  9
$CSHADOW
280
     0
  9
$SHADOWPLANELOCATION
 40
0.0
  0
ENDSEC
  0
SECTION
  2
CLASSES
  0
CLASS
  1
ACDBDICTIONARYWDFLT
  2
AcDbDictionaryWithDefault
  3
ObjectDBX Classes
 90
        0
 91
        1
280
     0
281
     0
  0
CLASS
  1
DICTIONARYVAR
  2
AcDbDictionaryVar
  3
ObjectDBX Classes
 90
        0
 91
       13
280
     0
281
     0
  0
CLASS
  1
TABLESTYLE
  2
AcDbTableStyle
  3
ObjectDBX Classes
 90
     4095
 91
        1
280
     0
281
     0
  0
CLASS
  1
MATERIAL
  2
AcDbMaterial
  3
ObjectDBX Classes
 90
     1153
 91
        3
280
     0
281
     0
  0
CLASS
  1
VISUALSTYLE
  2
AcDbVisualStyle
  3
ObjectDBX Classes
 90
     4095
 91
       24
280
     0
281
     0
  0
CLASS
  1
SCALE
  2
AcDbScale
  3
ObjectDBX Classes
 90
     1153
 91
       17
280
     0
281
     0
  0
CLASS
  1
MLEADERSTYLE
  2
AcDbMLeaderStyle
  3
ACDB_MLEADERSTYLE_CLASS
 90
     4095
 91
        1
280
     0
281
     0
  0
CLASS
  1
CELLSTYLEMAP
  2
AcDbCellStyleMap
  3
ObjectDBX Classes
 90
     1152
 91
        1
280
     0
281
     0
  0
CLASS
  1
EXACXREFPANELOBJECT
  2
ExAcXREFPanelObject
  3
EXAC_ESW
 90
     1025
 91
        0
280
     0
281
     0
  0
CLASS
  1
NPOCOLLECTION
  2
AcDbImpNonPersistentObjectsCollection
  3
ObjectDBX Classes
 90
     1153
 91
        0
280
     0
281
     0
  0
CLASS
  1
LAYER_INDEX
  2
AcDbLayerIndex
  3
ObjectDBX Classes
 90
        0
 91
        0
280
     0
281
     0
  0
CLASS
  1
SPATIAL_INDEX
  2
AcDbSpatialIndex
  3
ObjectDBX Classes
 90
        0
 91
        0
280
     0
281
     0
  0
CLASS
  1
IDBUFFER
  2
AcDbIdBuffer
  3
ObjectDBX Classes
 90
        0
 91
        0
280
     0
281
     0
  0
CLASS
  1
SOLID_BACKGROUND
  2
AcDbSolidBackground
  3
SCENEOE
 90
     4095
 91
        0
280
     0
281
     0
  0
CLASS
  1
DIMASSOC
  2
AcDbDimAssoc
  3
"AcDbDimAssoc|Product Desc:     AcDim ARX App For Dimension|Company:          Autodesk, Inc.|WEB Address:      www.autodesk.com"
 90
        0
 91
        1
280
     0
281
     0
  0
CLASS
  1
SORTENTSTABLE
  2
AcDbSortentsTable
  3
ObjectDBX Classes
 90
        0
 91
        1
280
     0
281
     0
  0
CLASS
  1
PLOTSETTINGS
  2
AcDbPlotSettings
  3
ObjectDBX Classes
 90
        0
 91
        1
280
     0
281
     0
  0
CLASS
  1
ACDBSECTIONVIEWSTYLE
  2
AcDbSectionViewStyle
  3
ObjectDBX Classes
 90
     1025
 91
        1
280
     0
281
     0
  0
CLASS
  1
ACDBDETAILVIEWSTYLE
  2
AcDbDetailViewStyle
  3
ObjectDBX Classes
 90
     1025
 91
        1
280
     0
281
     0
  0
CLASS
  1
ACDBASSOCNETWORK
  2
AcDbAssocNetwork
  3
ObjectDBX Classes
 90
     1025
 91
        0
280
     0
281
     0
  0
CLASS
  1
ACDBASSOC2DCONSTRAINTGROUP
  2
AcDbAssoc2dConstraintGroup
  3
ObjectDBX Classes
 90
     1025
 91
        0
280
     0
281
     0
  0
CLASS
  1
ACDBASSOCGEOMDEPENDENCY
  2
AcDbAssocGeomDependency
  3
ObjectDBX Classes
 90
     1025
 91
        0
280
     0
281
     0
  0
CLASS
  1
ACDB_ALDIMOBJECTCONTEXTDATA_CLASS
  2
AcDbAlignedDimensionObjectContextData
  3
ObjectDBX Classes
 90
     1153
 91
        9
280
     0
281
     0
  0
CLASS
  1
IMAGEDEF
  2
AcDbRasterImageDef
  3
ISM
 90
        0
 91
        0
280
     0
281
     0
  0
CLASS
  1
RASTERVARIABLES
  2
AcDbRasterVariables
  3
ISM
 90
        0
 91
        1
280
     0
281
     0
  0
CLASS
  1
IMAGEDEF_REACTOR
  2
AcDbRasterImageDefReactor
  3
ISM
 90
        1
 91
        0
280
     0
281
     0
  0
CLASS
  1
IMAGE
  2
AcDbRasterImage
  3
ISM
 90
     2175
 91
        0
280
     0
281
     1
  0
CLASS
  1
ACSH_SWEEP_CLASS
  2
AcDbShSweep
  3
ObjectDBX Classes
 90
     1153
 91
        0
280
     0
281
     0
  0
CLASS
  1
ACAD_EVALUATION_GRAPH
  2
AcDbEvalGraph
  3
ObjectDBX Classes
 90
     1153
 91
        0
280
     0
281
     0
  0
CLASS
  1
ACSH_HISTORY_CLASS
  2
AcDbShHistory
  3
ObjectDBX Classes
 90
     1153
 91
        0
280
     0
281
     0
  0
CLASS
  1
ACDBVIEWREPSTANDARD
  2
AcDbViewRepStandard
  3
AcModelDocObj
 90
      129
 91
        1
280
     0
281
     0
  0
CLASS
  1
ACAECUSTOBJ
  2
AcAeEditorObj
  3
AcAeEditorObj
 90
     1024
 91
        0
280
     0
281
     0
  0
CLASS
  1
WIPEOUTVARIABLES
  2
AcDbWipeoutVariables
  3
"WipeOut|Product Desc:     WipeOut Dbx Application|Company:          Autodesk, Inc.|WEB Address:      www.autodesk.com"
 90
        0
 91
        1
280
     0
281
     0
  0
CLASS
  1
PDFDEFINITION
  2
AcDbPdfDefinition
  3
ObjectDBX Classes
 90
     1153
 91
        0
280
     0
281
     0
  0
CLASS
  1
PDFUNDERLAY
  2
AcDbPdfReference
  3
ObjectDBX Classes
 90
     4095
 91
        0
280
     0
281
     1
  0
CLASS
  1
ACDB_ANGDIMOBJECTCONTEXTDATA_CLASS
  2
AcDbAngularDimensionObjectContextData
  3
ObjectDBX Classes
 90
     1153
 91
        0
280
     0
281
     0
  0
CLASS
  1
ACDB_DYNAMICBLOCKPURGEPREVENTER_VERSION
  2
AcDbDynamicBlockPurgePreventer
  3
ObjectDBX Classes
 90
     1153
 91
        0
280
     0
281
     0
  0
CLASS
  1
GROUND_PLANE_BACKGROUND
  2
AcDbGroundPlaneBackground
  3
SCENEOE
 90
     4095
 91
        0
280
     0
281
     0
  0
CLASS
  1
ACDB_RADIMOBJECTCONTEXTDATA_CLASS
  2
AcDbRadialDimensionObjectContextData
  3
ObjectDBX Classes
 90
     1153
 91
        0
280
     0
281
     0
  0
CLASS
  1
ACDB_DMDIMOBJECTCONTEXTDATA_CLASS
  2
AcDbDiametricDimensionObjectContextData
  3
ObjectDBX Classes
 90
     1153
 91
        0
280
     0
281
     0
  0
ENDSEC
  0
SECTION
  2
TABLES
  0
TABLE
  2
VPORT
  5
8
330
0
100
AcDbSymbolTable
 70
     1
  0
VPORT
  5
EA
330
8
100
AcDbSymbolTableRecord
100
AcDbViewportTableRecord
  2
*Active
 70
     0
 10
0.0
 20
0.0
 11
1.0
 21
1.0
 12
-2593.330577778721
 22
-993.4765135416492
 13
0.0
 23
0.0
 14
10.0
 24
10.0
 15
10.0
 25
10.0
 16
-0.0000000000181899
 26
0.0
 36
89783.14936059669
 17
17410.14001464844
 27
8890.31591796875
 37
0.0
 40
1896.495961184727
 41
2.206097560975609
 42
50.0
 43
0.0
 44
0.0
 50
0.0
 51
0.0
 71
     0
 72
  1000
 73
     1
 74
     3
 75
     0
 76
     0
 77
     0
 78
     2
281
     0
 65
     1
110
0.0
120
0.0
130
0.0
111
1.0
121
0.0
131
0.0
112
0.0
122
1.0
132
0.0
 79
     0
146
0.0
348
F5
 60
     3
 61
     5
292
     1
282
     1
141
0.0
142
0.0
 63
   250
421
  3355443
1001
ACAD_NAV_VCDISPLAY
1070
     3
  0
ENDTAB
  0
TABLE
  2
LTYPE
  5
5
330
0
100
AcDbSymbolTable
 70
     2
  0
LTYPE
  5
14
330
5
100
AcDbSymbolTableRecord
100
AcDbLinetypeTableRecord
  2
ByBlock
 70
     0
  3

 72
    65
 73
     0
 40
0.0
  0
LTYPE
  5
15
330
5
100
AcDbSymbolTableRecord
100
AcDbLinetypeTableRecord
  2
ByLayer
 70
     0
  3

 72
    65
 73
     0
 40
0.0
  0
LTYPE
  5
16
330
5
100
AcDbSymbolTableRecord
100
AcDbLinetypeTableRecord
  2
Continuous
 70
     0
  3
Solid line
 72
    65
 73
     0
 40
0.0
  0
LTYPE
  5
2FC4
330
5
100
AcDbSymbolTableRecord
100
AcDbLinetypeTableRecord
  2
DIVIDEX2
 70
     0
  3
Divide (2x) ________  .  .  ________  .  .  _
 72
    65
 73
     6
 40
63.49999999999999
 49
25.4
 74
     0
 49
-12.7
 74
     0
 49
0.0
 74
     0
 49
-12.7
 74
     0
 49
0.0
 74
     0
 49
-12.7
 74
     0
  0
ENDTAB
  0
TABLE
  2
LAYER
  5
2
102
{ACAD_XDICTIONARY
360
1FF
102
}
330
0
100
AcDbSymbolTable
 70
     7
  0
LAYER
  5
10
102
{ACAD_XDICTIONARY
360
13C
102
}
330
2
100
AcDbSymbolTableRecord
100
AcDbLayerTableRecord
  2
0
 70
     0
 62
     7
  6
Continuous
370
    -3
390
F
347
EE
348
0
  0
LAYER
  5
1927
330
2
100
AcDbSymbolTableRecord
100
AcDbLayerTableRecord
  2
Maatvoering
 70
     0
 62
     1
  6
Continuous
370
    -3
390
F
347
EE
348
0
1001
AcAecLayerStandard
1000

1000

1001
AcCmTransparency
1071
        0
  0
LAYER
  5
1F7D
330
2
100
AcDbSymbolTableRecord
100
AcDbLayerTableRecord
  2
Defpoints
 70
     0
 62
     7
  6
Continuous
290
     0
370
    -3
390
F
347
EE
348
0
  0
LAYER
  5
32C2
330
2
100
AcDbSymbolTableRecord
100
AcDbLayerTableRecord
  2
Hulplijnen
 70
     0
 62
     6
  6
Continuous
290
     0
370
    -3
390
F
347
EE
348
0
1001
AcAecLayerStandard
1000

1000

1001
AcCmTransparency
1071
        0
  0
LAYER
  5
41F7
102
{ACAD_XDICTIONARY
360
41F8
102
}
330
2
100
AcDbSymbolTableRecord
100
AcDbLayerTableRecord
  2
Breeklijn
 70
     0
 62
     7
  6
DIVIDEX2
370
    -3
390
F
347
EE
348
0
  0
LAYER
  5
68B9
330
2
100
AcDbSymbolTableRecord
100
AcDbLayerTableRecord
  2
Zwaluwstaartplaat
 70
     0
 62
     5
  6
Continuous
370
    -3
390
F
347
EE
348
0
1001
AcAecLayerStandard
1000

1000

1001
AcCmTransparency
1071
        0
  0
LAYER
  5
B4A3
330
2
100
AcDbSymbolTableRecord
100
AcDbLayerTableRecord
  2
Aanzichtlijnen
 70
     0
 62
     1
  6
Continuous
370
    -3
390
F
347
EE
348
0
1001
AcAecLayerStandard
1000

1000

1001
AcCmTransparency
1071
        0
  0
ENDTAB
  0
TABLE
  2
STYLE
  5
3
330
0
100
AcDbSymbolTable
 70
     1
  0
STYLE
  5
11
330
3
100
AcDbSymbolTableRecord
100
AcDbTextStyleTableRecord
  2
Standard
 70
     0
 40
0.0
 41
1.0
 50
0.0
 71
     0
 42
2.5
  3
arial.ttf
  4

1001
ACAD
1000
Arial
1071
       34
  0
ENDTAB
  0
TABLE
  2
VIEW
  5
6
330
0
100
AcDbSymbolTable
 70
     1
  0
ENDTAB
  0
TABLE
  2
UCS
  5
7
330
0
100
AcDbSymbolTable
 70
     0
  0
ENDTAB
  0
TABLE
  2
APPID
  5
9
330
0
100
AcDbSymbolTable
 70
    31
  0
APPID
  5
12
330
9
100
AcDbSymbolTableRecord
100
AcDbRegAppTableRecord
  2
ACAD
 70
     0
  0
APPID
  5
9E
330
9
100
AcDbSymbolTableRecord
100
AcDbRegAppTableRecord
  2
ACAD_PSEXT
 70
     0
  0
APPID
  5
133
330
9
100
AcDbSymbolTableRecord
100
AcDbRegAppTableRecord
  2
AcadAnnoPO
 70
     0
  0
APPID
  5
134
330
9
100
AcDbSymbolTableRecord
100
AcDbRegAppTableRecord
  2
AcadAnnotative
 70
     0
  0
APPID
  5
135
330
9
100
AcDbSymbolTableRecord
100
AcDbRegAppTableRecord
  2
ACAD_DSTYLE_DIMJAG
 70
     0
  0
APPID
  5
136
330
9
100
AcDbSymbolTableRecord
100
AcDbRegAppTableRecord
  2
ACAD_DSTYLE_DIMTALN
 70
     0
  0
APPID
  5
165
330
9
100
AcDbSymbolTableRecord
100
AcDbRegAppTableRecord
  2
ACAD_MLEADERVER
 70
     0
  0
APPID
  5
21C
330
9
100
AcDbSymbolTableRecord
100
AcDbRegAppTableRecord
  2
ACAD_EXEMPT_FROM_CAD_STANDARDS
 70
     0
  0
APPID
  5
26F
330
9
100
AcDbSymbolTableRecord
100
AcDbRegAppTableRecord
  2
GradientColor1ACI
 70
     0
  0
APPID
  5
270
330
9
100
AcDbSymbolTableRecord
100
AcDbRegAppTableRecord
  2
GradientColor2ACI
 70
     0
  0
APPID
  5
2F6
330
9
100
AcDbSymbolTableRecord
100
AcDbRegAppTableRecord
  2
HATCHBACKGROUNDCOLOR
 70
     0
  0
APPID
  5
EF5
330
9
100
AcDbSymbolTableRecord
100
AcDbRegAppTableRecord
  2
AcAecLayerStandard
 70
     0
  0
APPID
  5
EF6
330
9
100
AcDbSymbolTableRecord
100
AcDbRegAppTableRecord
  2
AcCmTransparency
 70
     0
  0
APPID
  5
2ADB
330
9
100
AcDbSymbolTableRecord
100
AcDbRegAppTableRecord
  2
ACAD_NAV_VCDISPLAY
 70
     0
  0
APPID
  5
2BB2
330
9
100
AcDbSymbolTableRecord
100
AcDbRegAppTableRecord
  2
ACAD_DSTYLE_DIMBREAK
 70
     0
  0
APPID
  5
2C93
330
9
100
AcDbSymbolTableRecord
100
AcDbRegAppTableRecord
  2
AcadAnnoMonitorAlertIconDisabled
 70
     0
  0
APPID
  5
2F78
330
9
100
AcDbSymbolTableRecord
100
AcDbRegAppTableRecord
  2
ACAD_DSTYLE_DIMJAG_POSITION
 70
     0
  0
APPID
  5
3590
330
9
100
AcDbSymbolTableRecord
100
AcDbRegAppTableRecord
  2
GBX_
 70
     0
  0
APPID
  5
38FB
330
9
100
AcDbSymbolTableRecord
100
AcDbRegAppTableRecord
  2
AcadAnnoAV
 70
     0
  0
APPID
  5
5D3C
330
9
100
AcDbSymbolTableRecord
100
AcDbRegAppTableRecord
  2
ARCADE_ALFA
 70
     0
  0
APPID
  5
6728
330
9
100
AcDbSymbolTableRecord
100
AcDbRegAppTableRecord
  2
BNS_SPRHATCH
 70
     0
  0
APPID
  5
8CAD
330
9
100
AcDbSymbolTableRecord
100
AcDbRegAppTableRecord
  2
AcLayerTools
 70
     0
  0
APPID
  5
965F
330
9
100
AcDbSymbolTableRecord
100
AcDbRegAppTableRecord
  2
PLOTTRANSPARENCY
 70
     0
  0
APPID
  5
C2EB
330
9
100
AcDbSymbolTableRecord
100
AcDbRegAppTableRecord
  2
ACAUTHENVIRON
 70
     0
  0
APPID
  5
C2EF
330
9
100
AcDbSymbolTableRecord
100
AcDbRegAppTableRecord
  2
AcDbDynamicBlockTrueName
 70
     0
  0
APPID
  5
C2F0
330
9
100
AcDbSymbolTableRecord
100
AcDbRegAppTableRecord
  2
AcDbDynamicBlockGUID
 70
     0
  0
APPID
  5
C53F
330
9
100
AcDbSymbolTableRecord
100
AcDbRegAppTableRecord
  2
AdeskUnderlayLayerOverrideData
 70
     0
  0
APPID
  5
11006
330
9
100
AcDbSymbolTableRecord
100
AcDbRegAppTableRecord
  2
ACAD_DSTYLE_DIMRADIAL_EXTENSION
 70
     0
  0
APPID
  5
1D6D0
330
9
100
AcDbSymbolTableRecord
100
AcDbRegAppTableRecord
  2
ACAD_DIMASSOC_CALC_DIMLFAC
 70
     0
  0
APPID
  5
1D6D1
330
9
100
AcDbSymbolTableRecord
100
AcDbRegAppTableRecord
  2
ACAD_DIMASSOC_DIMLFAC
 70
     0
  0
APPID
  5
1D6D2
330
9
100
AcDbSymbolTableRecord
100
AcDbRegAppTableRecord
  2
ACAD_DIMASSOC_OVERRIDDEN_DIMLFAC
 70
     0
  0
ENDTAB
  0
TABLE
  2
DIMSTYLE
  5
A
330
0
100
AcDbSymbolTable
 70
     3
100
AcDbDimStyleTable
 71
     2
340
D62F
340
1A4C3
  0
DIMSTYLE
105
1B0
330
A
100
AcDbSymbolTableRecord
100
AcDbDimStyleTableRecord
  2
Standard
 70
     0
340
11
  0
DIMSTYLE
105
D62F
102
{ACAD_REACTORS
330
117E7
330
11864
330
11A27
330
1D897
330
1D8D6
330
1D8FC
330
1F81F
330
1F824
330
1F925
102
}
330
A
100
AcDbSymbolTableRecord
100
AcDbDimStyleTableRecord
  2
Maatvoering 2 detail 1-5
 70
     0
 40
50.0
 41
10.0
 42
25.0
 43
5.0
 44
15.0
 46
10.0
 49
100.0
140
15.0
141
1.0
147
20.0
271
     0
272
     0
278
    44
340
11
342
7C45
1001
ACAD_DSTYLE_DIMBREAK
1070
   391
1040
2.0
1001
AcadAnnotative
1000
AnnotativeData
1002
{
1070
     1
1070
     1
1002
}
1001
ACAD_DSTYLE_DIMJAG
1070
   388
1040
200.0
1001
ACAD_DSTYLE_DIMTALN
1070
   392
1070
     0
  0
DIMSTYLE
105
1A4C3
330
A
100
AcDbSymbolTableRecord
100
AcDbDimStyleTableRecord
  2
Maatvoering 2b detail 1-5 (x)
 70
     0
 40
50.0
 41
10.0
 42
25.0
 43
5.0
 44
10.0
 46
10.0
 49
100.0
140
15.0
141
1.0
147
20.0
271
     0
272
     0
340
11
343
1A4BD
1001
ACAD_DSTYLE_DIMBREAK
1070
   391
1040
2.0
1001
AcadAnnotative
1000
AnnotativeData
1002
{
1070
     1
1070
     1
1002
}
1001
ACAD_DSTYLE_DIMJAG
1070
   388
1040
200.0
1001
ACAD_DSTYLE_DIMTALN
1070
   392
1070
     0
  0
ENDTAB
  0
TABLE
  2
BLOCK_RECORD
  5
1
330
0
100
AcDbSymbolTable
 70
    13
  0
BLOCK_RECORD
  5
1F
102
{ACAD_XDICTIONARY
360
1CE
102
}
330
1
100
AcDbSymbolTableRecord
100
AcDbBlockTableRecord
  2
*Model_Space
340
22
 70
     0
280
     1
281
     0
  0
BLOCK_RECORD
  5
23D87
330
1
100
AcDbSymbolTableRecord
100
AcDbBlockTableRecord
  2
*Paper_Space
340
23D88
 70
     0
280
     1
281
     0
  0
BLOCK_RECORD
  5
7C45
330
1
100
AcDbSymbolTableRecord
100
AcDbBlockTableRecord
  2
_Oblique
340
0
102
{BLKREFS
331
23FD1
331
23FD2
331
23FDB
331
23FDC
331
23FE5
331
23FE6
331
23FEF
331
23FF0
331
23F9E
331
23F9F
331
23FA8
331
23FA9
331
23FB3
331
23FB4
331
23FBC
331
23FBD
331
23FC6
331
23FC7
102
}
 70
     0
280
     1
281
     0
  0
BLOCK_RECORD
  5
117EC
330
1
100
AcDbSymbolTableRecord
100
AcDbBlockTableRecord
  2
*D1
340
0
 70
     0
280
     1
281
     0
  0
BLOCK_RECORD
  5
11869
330
1
100
AcDbSymbolTableRecord
100
AcDbBlockTableRecord
  2
*D2
340
0
 70
     0
280
     1
281
     0
  0
BLOCK_RECORD
  5
11A2C
330
1
100
AcDbSymbolTableRecord
100
AcDbBlockTableRecord
  2
*D3
340
0
 70
     0
280
     1
281
     0
  0
BLOCK_RECORD
  5
12372
330
1
100
AcDbSymbolTableRecord
100
AcDbBlockTableRecord
  2
Zwaluwstaartplaat drsn
340
0
310
2800000020000000200000000100080000000000000400000000000000000000000000000000000000000000000080000080000000808000800000008000800080800000C0C0C000C0DCC000F0CAA6000020400000206000002080000020A0000020C0000020E00000400000004020000040400000406000004080000040A0
310
000040C0000040E00000600000006020000060400000606000006080000060A0000060C0000060E00000800000008020000080400000806000008080000080A0000080C0000080E00000A0000000A0200000A0400000A0600000A0800000A0A00000A0C00000A0E00000C0000000C0200000C0400000C0600000C0800000C0
310
A00000C0C00000C0E00000E0000000E0200000E0400000E0600000E0800000E0A00000E0C00000E0E00040000000400020004000400040006000400080004000A0004000C0004000E00040200000402020004020400040206000402080004020A0004020C0004020E000404000004040200040404000404060004040800040
310
40A0004040C0004040E00040600000406020004060400040606000406080004060A0004060C0004060E00040800000408020004080400040806000408080004080A0004080C0004080E00040A0000040A0200040A0400040A0600040A0800040A0A00040A0C00040A0E00040C0000040C0200040C0400040C0600040C08000
310
40C0A00040C0C00040C0E00040E0000040E0200040E0400040E0600040E0800040E0A00040E0C00040E0E00080000000800020008000400080006000800080008000A0008000C0008000E00080200000802020008020400080206000802080008020A0008020C0008020E00080400000804020008040400080406000804080
310
008040A0008040C0008040E00080600000806020008060400080606000806080008060A0008060C0008060E00080800000808020008080400080806000808080008080A0008080C0008080E00080A0000080A0200080A0400080A0600080A0800080A0A00080A0C00080A0E00080C0000080C0200080C0400080C0600080C0
310
800080C0A00080C0C00080C0E00080E0000080E0200080E0400080E0600080E0800080E0A00080E0C00080E0E000C0000000C0002000C0004000C0006000C0008000C000A000C000C000C000E000C0200000C0202000C0204000C0206000C0208000C020A000C020C000C020E000C0400000C0402000C0404000C0406000C0
310
408000C040A000C040C000C040E000C0600000C0602000C0604000C0606000C0608000C060A000C060C000C060E000C0800000C0802000C0804000C0806000C0808000C080A000C080C000C080E000C0A00000C0A02000C0A04000C0A06000C0A08000C0A0A000C0A0C000C0A0E000C0C00000C0C02000C0C04000C0C06000
310
C0C08000C0C0A000F0FBFF00A4A0A000808080000000FF0000FF000000FFFF00FF000000FF00FF00FFFF0000FFFFFF0000000000000000000000000000000000000000000000000000000000000000000000000000000000000000000000000000000000000000000000000000000000000000000000000000000000000000
310
00000000000000000000000000000000000000000000000000000000000000000000000000000000000000000000000000000000000000000000000000000000000000000000000000000000000000000000000000000000000000000000000000000000000000000000000000000000000000000000000000000000000000
310
00000000000000000000000000000000000000000000000000000000000000000000000000000000000000000000000000000000000000000000000000000000000000000000000000000000000000000000000000000000000000000000000000000000000000000000000000000000000000000000000000000000000000
310
00000000000000000000000000000000000000000000000000000000000000000000000000000000000000000000000000000000000000000000000000000000000000000000000000000000000000000000000000000000000000000000000000000000000000000000000000000000000000000000000000000000000000
310
00000000000000000000000000000000000000000000FCFCFCFCFCFCFCFCFCFCFCFCFCFC00FCFC00FCFC00FCFCFCFCFCFCFCFC0000FCFCFCFCFC00FCFC00FCFCFCFCFCFCFCFCFCFCFCFCFCFCFCFCFCFCFC00000000000000000000000000000000000000000000000000000000000000000000000000000000000000000000
310
00000000000000000000000000000000000000000000000000000000000000000000000000000000000000000000000000000000000000000000000000000000000000000000000000000000000000000000000000000000000000000000000000000000000000000000000000000000000000000000000000000000000000
310
00000000000000000000000000000000000000000000000000000000000000000000000000000000000000000000000000000000000000000000000000000000000000000000000000000000000000000000000000000000000000000000000000000000000000000000000000000000000000000000000000000000000000
310
00000000000000000000000000000000000000000000000000000000000000000000000000000000000000000000000000000000000000000000000000000000000000000000000000000000000000000000000000000000000000000000000000000000000000000000000000000000000000000000000000000000000000
310
0000000000000000000000000000000000000000000000000000000000000000000000000000000000000000000000000000000000000000
102
{BLKREFS
331
124AC
102
}
 70
     4
280
     1
281
     0
  0
BLOCK_RECORD
  5
1A4BD
330
1
100
AcDbSymbolTableRecord
100
AcDbBlockTableRecord
  2
_ClosedBlank
340
0
 70
     0
280
     1
281
     0
  0
BLOCK_RECORD
  5
1D89C
330
1
100
AcDbSymbolTableRecord
100
AcDbBlockTableRecord
  2
*D6
340
0
 70
     0
280
     1
281
     0
  0
BLOCK_RECORD
  5
1D8DB
330
1
100
AcDbSymbolTableRecord
100
AcDbBlockTableRecord
  2
*D7
340
0
 70
     0
280
     1
281
     0
  0
BLOCK_RECORD
  5
1D901
330
1
100
AcDbSymbolTableRecord
100
AcDbBlockTableRecord
  2
*D8
340
0
 70
     0
280
     1
281
     0
  0
BLOCK_RECORD
  5
1F82B
330
1
100
AcDbSymbolTableRecord
100
AcDbBlockTableRecord
  2
*D9
340
0
 70
     0
280
     1
281
     0
  0
BLOCK_RECORD
  5
1F838
330
1
100
AcDbSymbolTableRecord
100
AcDbBlockTableRecord
  2
*D10
340
0
 70
     0
280
     1
281
     0
  0
BLOCK_RECORD
  5
1F92A
330
1
100
AcDbSymbolTableRecord
100
AcDbBlockTableRecord
  2
*D11
340
0
 70
     0
280
     1
281
     0
  0
BLOCK_RECORD
  5
23D9C
330
1
100
AcDbSymbolTableRecord
100
AcDbBlockTableRecord
  2
Copyright
340
0
310
2800000020000000200000000100080000000000000400000000000000000000000000000000000000000000000080000080000000808000800000008000800080800000C0C0C000C0DCC000F0CAA6000020400000206000002080000020A0000020C0000020E00000400000004020000040400000406000004080000040A0
310
000040C0000040E00000600000006020000060400000606000006080000060A0000060C0000060E00000800000008020000080400000806000008080000080A0000080C0000080E00000A0000000A0200000A0400000A0600000A0800000A0A00000A0C00000A0E00000C0000000C0200000C0400000C0600000C0800000C0
310
A00000C0C00000C0E00000E0000000E0200000E0400000E0600000E0800000E0A00000E0C00000E0E00040000000400020004000400040006000400080004000A0004000C0004000E00040200000402020004020400040206000402080004020A0004020C0004020E000404000004040200040404000404060004040800040
310
40A0004040C0004040E00040600000406020004060400040606000406080004060A0004060C0004060E00040800000408020004080400040806000408080004080A0004080C0004080E00040A0000040A0200040A0400040A0600040A0800040A0A00040A0C00040A0E00040C0000040C0200040C0400040C0600040C08000
310
40C0A00040C0C00040C0E00040E0000040E0200040E0400040E0600040E0800040E0A00040E0C00040E0E00080000000800020008000400080006000800080008000A0008000C0008000E00080200000802020008020400080206000802080008020A0008020C0008020E00080400000804020008040400080406000804080
310
008040A0008040C0008040E00080600000806020008060400080606000806080008060A0008060C0008060E00080800000808020008080400080806000808080008080A0008080C0008080E00080A0000080A0200080A0400080A0600080A0800080A0A00080A0C00080A0E00080C0000080C0200080C0400080C0600080C0
310
800080C0A00080C0C00080C0E00080E0000080E0200080E0400080E0600080E0800080E0A00080E0C00080E0E000C0000000C0002000C0004000C0006000C0008000C000A000C000C000C000E000C0200000C0202000C0204000C0206000C0208000C020A000C020C000C020E000C0400000C0402000C0404000C0406000C0
310
408000C040A000C040C000C040E000C0600000C0602000C0604000C0606000C0608000C060A000C060C000C060E000C0800000C0802000C0804000C0806000C0808000C080A000C080C000C080E000C0A00000C0A02000C0A04000C0A06000C0A08000C0A0A000C0A0C000C0A0E000C0C00000C0C02000C0C04000C0C06000
310
C0C08000C0C0A000F0FBFF00A4A0A000808080000000FF0000FF000000FFFF00FF000000FF00FF00FFFF0000FFFFFF0000000000000000000000000000000000000000000000000000000000000000000000000000000000000000000000000000000000000000000000000000000000000000000000000000000000000000
310
00000000000000000000000000000000000000000000000000000000000000000000000000000000000000000000000000000000000000000000000000000000000000000000000000000000000000000000000000000000000000000000000000000000000000000000000000000000000000000000000000000000000000
310
00000000000000000000000000000000000000000000000000000000000000000000000000000000000000000000000000000000000000000000000000000000000000000000000000000000000000000000000000000000000000000000000000000000000000000000000000000000000000000000000000000000000000
310
0000000000000000000000000000000000000000000000000000000000000000000000000000000000000000000000000000000000000000000000000000000000000000000000000000000000000000000000000000000000000000000000000000000000000000000000000000000000000000FDFDFDFDFDFDFDFDFDFDFD
310
FDFDFDFDFDFDFDFDFDFDFDFD000000000000000000FDFDFDFDFDFDFDFDFDFDFDFDFDFDFDFDFDFDFDFDFDFDFDFDFDFDFDFD00000000FDFDFDFDFDFDFDFDFDFDFDFDFDFDFDFDFDFDFDFDFDFDFDFDFDFDFDFDFD000000FDFDFDFDFDFDFDFDFDFDFDFDFDFDFDFDFDFDFDFDFDFDFDFDFDFDFDFDFD00000000000000000000000000
310
00000000000000000000000000000000000000000000000000000000000000000000000000000000000000000000000000000000000000000000000000000000000000000000000000000000000000000000000000000000000000000000000000000000000000000000000000000000000000000000000000000000000000
310
00000000000000000000000000000000000000000000000000000000000000000000000000000000000000000000000000000000000000000000000000000000000000000000000000000000000000000000000000000000000000000000000000000000000000000000000000000000000000000000000000000000000000
310
00000000000000000000000000000000000000000000000000000000000000000000000000000000000000000000000000000000000000000000000000000000000000000000000000000000000000000000000000000000000000000000000000000000000000000000000000000000000000000000000000000000000000
310
0000000000000000000000000000000000000000000000000000000000000000000000000000000000000000000000000000000000000000
102
{BLKREFS
331
23DAA
102
}
 70
     4
280
     1
281
     0
  0
ENDTAB
  0
ENDSEC
  0
SECTION
  2
BLOCKS
  0
BLOCK
  5
20
330
1F
100
AcDbEntity
  8
0
100
AcDbBlockBegin
  2
*Model_Space
 70
     0
 10
0.0
 20
0.0
 30
0.0
  3
*Model_Space
  1

  0
ENDBLK
  5
21
330
1F
100
AcDbEntity
  8
0
100
AcDbBlockEnd
  0
BLOCK
  5
23D89
330
23D87
100
AcDbEntity
 67
     1
  8
0
100
AcDbBlockBegin
  2
*Paper_Space
 70
     0
 10
0.0
 20
0.0
 30
0.0
  3
*Paper_Space
  1

  0
ENDBLK
  5
23D8A
330
23D87
100
AcDbEntity
 67
     1
  8
0
100
AcDbBlockEnd
  0
BLOCK
  5
7C47
330
7C45
100
AcDbEntity
  8
0
100
AcDbBlockBegin
  2
_Oblique
 70
     0
 10
0.0
 20
0.0
 30
0.0
  3
_Oblique
  1

  0
LINE
  5
7C46
330
7C45
100
AcDbEntity
  8
0
  6
ByBlock
 62
     0
370
    -2
100
AcDbLine
 10
-0.5
 20
-0.5
 30
0.0
 11
0.5
 21
0.5
 31
0.0
  0
ENDBLK
  5
7C48
330
7C45
100
AcDbEntity
  8
0
100
AcDbBlockEnd
  0
BLOCK
  5
117ED
330
117EC
100
AcDbEntity
  8
0
100
AcDbBlockBegin
  2
*D1
 70
     1
 10
0.0
 20
0.0
 30
0.0
  3
*D1
  1

  0
LINE
  5
23F9A
330
117EC
100
AcDbEntity
  8
Maatvoering
 62
     0
440
 16777216
370
    -2
100
AcDbLine
 10
14254.14005680749
 20
7671.691247519354
 30
0.0
 11
14254.14005680749
 21
7584.966055017033
 31
0.0
  0
LINE
  5
23F9B
330
117EC
100
AcDbEntity
  8
Maatvoering
 62
     0
440
 16777216
370
    -2
100
AcDbLine
 10
14884.10011316535
 20
7655.727031840164
 30
0.0
 11
14884.10011316535
 21
7584.966055017033
 31
0.0
  0
LINE
  5
23F9C
330
117EC
100
AcDbEntity
  8
Maatvoering
 62
     0
440
 16777216
370
    -2
100
AcDbLine
 10
14244.14005680749
 20
7599.966055017033
 30
0.0
 11
14525.06496844596
 21
7599.966055017033
 31
0.0
  0
LINE
  5
23F9D
330
117EC
100
AcDbEntity
  8
Maatvoering
 62
     0
440
 16777216
370
    -2
100
AcDbLine
 10
14894.10011316535
 20
7599.966055017033
 30
0.0
 11
14598.23686476247
 21
7599.966055017033
 31
0.0
  0
INSERT
  5
23F9E
330
117EC
100
AcDbEntity
  8
Maatvoering
 62
     0
440
 16777216
370
    -2
100
AcDbBlockReference
  2
_Oblique
 10
14254.14005680749
 20
7599.966055017033
 30
0.0
 41
10.0
 42
10.0
 43
10.0
 50
180.0
  0
INSERT
  5
23F9F
330
117EC
100
AcDbEntity
  8
Maatvoering
 62
     0
440
 16777216
370
    -2
100
AcDbBlockReference
  2
_Oblique
 10
14884.10011316535
 20
7599.966055017033
 30
0.0
 41
10.0
 42
10.0
 43
10.0
  0
MTEXT
  5
23FA0
330
117EC
100
AcDbEntity
  8
Maatvoering
 62
     0
440
 16777216
100
AcDbMText
 10
14561.65091660421
 20
7599.966055017033
 30
0.0
 40
15.0
 41
0.0
 46
0.0
 71
     5
 72
     1
  1
\A1;630
 73
     1
 44
1.0
  0
POINT
  5
23FA1
330
117EC
100
AcDbEntity
  8
Defpoints
 62
     0
440
 16777216
100
AcDbPoint
 10
14254.14005680749
 20
7696.691247519353
 30
0.0
  0
POINT
  5
23FA2
330
117EC
100
AcDbEntity
  8
Defpoints
 62
     0
440
 16777216
100
AcDbPoint
 10
14884.10011316535
 20
7680.727031840163
 30
0.0
  0
POINT
  5
23FA3
330
117EC
100
AcDbEntity
  8
Defpoints
 62
     0
440
 16777216
100
AcDbPoint
 10
14884.10011316535
 20
7599.966055017033
 30
0.0
  0
ENDBLK
  5
117EE
330
117EC
100
AcDbEntity
  8
0
100
AcDbBlockEnd
  0
BLOCK
  5
1186A
330
11869
100
AcDbEntity
  8
0
100
AcDbBlockBegin
  2
*D2
 70
     1
 10
0.0
 20
0.0
 30
0.0
  3
*D2
  1

  0
LINE
  5
23FA4
330
11869
100
AcDbEntity
  8
Maatvoering
 62
     0
440
 16777216
370
    -2
100
AcDbLine
 10
14274.14018129644
 20
7671.727031840163
 30
0.0
 11
14274.14018129644
 21
7615.727134687145
 31
0.0
  0
LINE
  5
23FA5
330
11869
100
AcDbEntity
  8
Maatvoering
 62
     0
440
 16777216
370
    -2
100
AcDbLine
 10
14884.10011316535
 20
7655.691247519354
 30
0.0
 11
14884.10011316535
 21
7615.727134687145
 31
0.0
  0
LINE
  5
23FA6
330
11869
100
AcDbEntity
  8
Maatvoering
 62
     0
440
 16777216
370
    -2
100
AcDbLine
 10
14264.14018129644
 20
7630.727134687145
 30
0.0
 11
14453.15834641234
 21
7630.727134687145
 31
0.0
  0
LINE
  5
23FA7
330
11869
100
AcDbEntity
  8
Maatvoering
 62
     0
440
 16777216
370
    -2
100
AcDbLine
 10
14894.10011316535
 20
7630.727134687145
 30
0.0
 11
14705.08194804945
 21
7630.727134687145
 31
0.0
  0
INSERT
  5
23FA8
330
11869
100
AcDbEntity
  8
Maatvoering
 62
     0
440
 16777216
370
    -2
100
AcDbBlockReference
  2
_Oblique
 10
14274.14018129644
 20
7630.727134687145
 30
0.0
 41
10.0
 42
10.0
 43
10.0
 50
180.0
  0
INSERT
  5
23FA9
330
11869
100
AcDbEntity
  8
Maatvoering
 62
     0
440
 16777216
370
    -2
100
AcDbBlockReference
  2
_Oblique
 10
14884.10011316535
 20
7630.727134687145
 30
0.0
 41
10.0
 42
10.0
 43
10.0
  0
MTEXT
  5
23FAA
330
11869
100
AcDbEntity
  8
Maatvoering
 62
     0
440
 16777216
100
AcDbMText
 10
14579.1201472309
 20
7630.727134687145
 30
0.0
 40
15.0
 41
0.0
 46
0.0
 71
     5
 72
     1
  1
\A1;Werkende breedte 610
 73
     1
 44
1.0
  0
POINT
  5
23FAB
330
11869
100
AcDbEntity
  8
Defpoints
 62
     0
440
 16777216
100
AcDbPoint
 10
14274.14018129644
 20
7696.727031840163
 30
0.0
  0
POINT
  5
23FAC
330
11869
100
AcDbEntity
  8
Defpoints
 62
     0
440
 16777216
100
AcDbPoint
 10
14884.10011316535
 20
7680.691247519354
 30
0.0
  0
POINT
  5
23FAD
330
11869
100
AcDbEntity
  8
Defpoints
 62
     0
440
 16777216
100
AcDbPoint
 10
14884.10011316535
 20
7630.727134687145
 30
0.0
  0
ENDBLK
  5
1186B
330
11869
100
AcDbEntity
  8
0
100
AcDbBlockEnd
  0
BLOCK
  5
11A2D
330
11A2C
100
AcDbEntity
  8
0
100
AcDbBlockBegin
  2
*D3
 70
     1
 10
0.0
 20
0.0
 30
0.0
  3
*D3
  1

  0
LINE
  5
23FAE
330
11A2C
100
AcDbEntity
  8
Maatvoering
 62
     0
440
 16777216
370
    -2
100
AcDbLine
 10
14909.10011316535
 20
7680.727031840163
 30
0.0
 11
14934.52934839683
 21
7680.727031840163
 31
0.0
  0
LINE
  5
23FAF
330
11A2C
100
AcDbEntity
  8
Maatvoering
 62
     0
440
 16777216
370
    -2
100
AcDbLine
 10
14905.83881316535
 20
7696.727031840163
 30
0.0
 11
14934.52934839683
 21
7696.727031840163
 31
0.0
  0
LINE
  5
23FB0
330
11A2C
100
AcDbEntity
  8
Maatvoering
 62
     0
440
 16777216
370
    -2
100
AcDbLine
 10
14919.52934839683
 20
7680.727031840163
 30
0.0
 11
14919.52934839683
 21
7670.727031840164
 31
0.0
  0
LINE
  5
23FB1
330
11A2C
100
AcDbEntity
  8
Maatvoering
 62
     0
440
 16777216
370
    -2
100
AcDbLine
 10
14919.52934839683
 20
7696.727031840163
 30
0.0
 11
14919.52934839683
 21
7706.727031840163
 31
0.0
  0
MTEXT
  5
23FB2
330
11A2C
100
AcDbEntity
  8
Maatvoering
 62
     0
440
 16777216
100
AcDbMText
 10
14946.54975457228
 20
7688.727131840166
 30
0.0
 40
15.0
 41
0.0
 46
0.0
 71
     5
 72
     1
  1
\A1;16
 73
     1
 44
1.0
  0
INSERT
  5
23FB3
330
11A2C
100
AcDbEntity
  8
Maatvoering
 62
     0
440
 16777216
370
    -2
100
AcDbBlockReference
  2
_Oblique
 10
14919.52934839683
 20
7680.727031840163
 30
0.0
 41
10.0
 42
10.0
 43
10.0
 50
90.0
  0
INSERT
  5
23FB4
330
11A2C
100
AcDbEntity
  8
Maatvoering
 62
     0
440
 16777216
370
    -2
100
AcDbBlockReference
  2
_Oblique
 10
14919.52934839683
 20
7696.727031840163
 30
0.0
 41
10.0
 42
10.0
 43
10.0
 50
270.0
  0
POINT
  5
23FB5
330
11A2C
100
AcDbEntity
  8
Defpoints
 62
     0
440
 16777216
100
AcDbPoint
 10
14884.10011316535
 20
7680.727031840163
 30
0.0
  0
POINT
  5
23FB6
330
11A2C
100
AcDbEntity
  8
Defpoints
 62
     0
440
 16777216
100
AcDbPoint
 10
14880.83881316535
 20
7696.727031840163
 30
0.0
  0
POINT
  5
23FB7
330
11A2C
100
AcDbEntity
  8
Defpoints
 62
     0
440
 16777216
100
AcDbPoint
 10
14919.52934839683
 20
7696.727031840163
 30
0.0
  0
ENDBLK
  5
11A2E
330
11A2C
100
AcDbEntity
  8
0
100
AcDbBlockEnd
  0
BLOCK
  5
12373
330
12372
100
AcDbEntity
  8
0
100
AcDbBlockBegin
  2
Zwaluwstaartplaat drsn
 70
     0
 10
0.0
 20
0.0
 30
0.0
  3
Zwaluwstaartplaat drsn
  1

  0
SPLINE
  5
1245F
330
12372
100
AcDbEntity
  8
Zwaluwstaartplaat
370
    60
100
AcDbSpline
210
0.0
220
0.0
230
1.0
 70
  1176
 71
     3
 72
     8
 73
     4
 74
     0
 42
0.000000001
 43
0.0000000001
 40
0.0
 40
0.0
 40
0.0
 40
0.0
 40
1.0
 40
1.0
 40
1.0
 40
1.0
 10
-29.30160000000433
 20
-0.0000000000009095
 30
0.0
 10
-19.53440000000288
 20
-0.0000000000006063
 30
0.0
 10
-9.767200000001443
 20
-0.0000000000003032
 30
0.0
 10
0.0
 20
0.0
 30
0.0
  0
SPLINE
  5
12460
330
12372
100
AcDbEntity
  8
Zwaluwstaartplaat
370
   106
100
AcDbSpline
210
0.0
220
0.0
230
1.0
 70
  1176
 71
     3
 72
     8
 73
     4
 74
     0
 42
0.000000001
 43
0.0000000001
 40
0.0
 40
0.0
 40
0.0
 40
0.0
 40
1.0
 40
1.0
 40
1.0
 40
1.0
 10
-127.7616000000034
 20
15.99999999999909
 30
0.0
 10
-115.9281666666702
 20
15.99999999999909
 30
0.0
 10
-104.094733333337
 20
15.99999999999909
 30
0.0
 10
-92.26130000000376
 20
15.99999999999909
 30
0.0
  0
SPLINE
  5
12461
330
12372
100
AcDbEntity
  8
Zwaluwstaartplaat
370
   106
100
AcDbSpline
210
0.0
220
0.0
230
1.0
 70
  1176
 71
     3
 72
     8
 73
     4
 74
     0
 42
0.000000001
 43
0.0000000001
 40
0.0
 40
0.0
 40
0.0
 40
0.0
 40
1.0
 40
1.0
 40
1.0
 40
1.0
 10
-63.66200000000389
 20
15.99999999999909
 30
0.0
 10
-51.86176666667051
 20
15.99999999999909
 30
0.0
 10
-40.06153333333713
 20
15.99999999999909
 30
0.0
 10
-28.26130000000376
 20
15.99999999999909
 30
0.0
  0
SPLINE
  5
12462
330
12372
100
AcDbEntity
  8
Zwaluwstaartplaat
370
   106
100
AcDbSpline
210
0.0
220
0.0
230
1.0
 70
  1176
 71
     3
 72
     8
 73
     4
 74
     0
 42
0.000000001
 43
0.0000000001
 40
0.0
 40
0.0
 40
0.0
 40
0.0
 40
1.0
 40
1.0
 40
1.0
 40
1.0
 10
-94.42160000000331
 20
1.620299999999588
 30
0.0
 10
-93.28166666667007
 20
5.873566666666192
 30
0.0
 10
-92.14173333333686
 20
10.1268333333328
 30
0.0
 10
-91.00180000000364
 20
14.3800999999994
 30
0.0
  0
SPLINE
  5
12463
330
12372
100
AcDbEntity
  8
Zwaluwstaartplaat
370
   106
100
AcDbSpline
210
0.0
220
0.0
230
1.0
 70
  1176
 71
     3
 72
     8
 73
     4
 74
     0
 42
0.000000001
 43
0.0000000001
 40
0.0
 40
0.0
 40
0.0
 40
0.0
 40
1.0
 40
1.0
 40
1.0
 40
1.0
 10
-30.42050000000382
 20
1.620299999999588
 30
0.0
 10
-29.28076666667039
 20
5.873566666666192
 30
0.0
 10
-28.14103333333696
 20
10.1268333333328
 30
0.0
 10
-27.00130000000354
 20
14.3800999999994
 30
0.0
  0
SPLINE
  5
12464
330
12372
100
AcDbEntity
  8
Zwaluwstaartplaat
370
   106
100
AcDbSpline
210
0.0
220
0.0
230
1.0
 70
  1176
 71
     3
 72
     8
 73
     4
 74
     0
 42
0.000000001
 43
0.0000000001
 40
0.0
 40
0.0
 40
0.0
 40
0.0
 40
1.0
 40
1.0
 40
1.0
 40
1.0
 10
-61.50000000000364
 20
1.620299999999588
 30
0.0
 10
-62.64046666667006
 20
5.873566666666192
 30
0.0
 10
-63.78093333333648
 20
10.1268333333328
 30
0.0
 10
-64.9214000000029
 20
14.3800999999994
 30
0.0
  0
SPLINE
  5
12465
330
12372
100
AcDbEntity
  8
Zwaluwstaartplaat
370
    90
100
AcDbSpline
210
0.0
220
0.0
230
1.0
 70
  1288
 71
     3
 72
    12
 73
     8
 74
     0
 42
0.0000000001
 43
0.0000000001
 40
0.0
 40
0.0
 40
0.0
 40
0.0
 40
0.5
 40
0.5
 40
0.5
 40
0.500000001
 40
1.0
 40
1.0
 40
1.0
 40
1.0
 10
-93.16090000000441
 20
-0.0000000000009095
 30
0.0
 10
-93.88250000000335
 20
-0.0000000000009095
 30
0.0
 10
-94.46090000000367
 20
0.5807999999997265
 30
0.0
 10
-94.46090000000367
 20
1.299799999999777
 30
0.0
 10
-94.46090000000367
 20
1.299799999999777
 30
0.0
 10
-94.46090000000367
 20
1.409799999999449
 30
0.0
 10
-94.45120000000315
 20
1.520799999999326
 30
0.0
 10
-94.42160000000331
 20
1.620299999999588
 30
0.0
  0
SPLINE
  5
12466
330
12372
100
AcDbEntity
  8
Zwaluwstaartplaat
370
   120
100
AcDbSpline
210
0.0
220
0.0
230
1.0
 70
  1288
 71
     3
 72
    12
 73
     8
 74
     0
 42
0.0000000001
 43
0.0000000001
 40
0.0
 40
0.0
 40
0.0
 40
0.0
 40
0.5
 40
0.5
 40
0.5
 40
0.500000001
 40
1.0
 40
1.0
 40
1.0
 40
1.0
 10
-29.30160000000433
 20
-0.0000000000009095
 30
0.0
 10
-29.94150000000445
 20
-0.0000000000009095
 30
0.0
 10
-30.46150000000307
 20
0.5807999999997265
 30
0.0
 10
-30.46150000000307
 20
1.299799999999777
 30
0.0
 10
-30.46150000000307
 20
1.299799999999777
 30
0.0
 10
-30.46150000000307
 20
1.409799999999449
 30
0.0
 10
-30.45130000000427
 20
1.520799999999326
 30
0.0
 10
-30.42050000000382
 20
1.620299999999588
 30
0.0
  0
SPLINE
  5
12467
330
12372
100
AcDbEntity
  8
Zwaluwstaartplaat
370
    90
100
AcDbSpline
210
0.0
220
0.0
230
1.0
 70
  1288
 71
     3
 72
    12
 73
     8
 74
     0
 42
0.0000000001
 43
0.0000000001
 40
0.0
 40
0.0
 40
0.0
 40
0.0
 40
0.5
 40
0.5
 40
0.5
 40
0.500000001
 40
1.0
 40
1.0
 40
1.0
 40
1.0
 10
-62.76080000000366
 20
-0.0000000000009095
 30
0.0
 10
-62.04180000000452
 20
-0.0000000000009095
 30
0.0
 10
-61.46100000000297
 20
0.5807999999997265
 30
0.0
 10
-61.46100000000297
 20
1.299799999999777
 30
0.0
 10
-61.46100000000297
 20
1.299799999999777
 30
0.0
 10
-61.46100000000297
 20
1.409799999999449
 30
0.0
 10
-61.47100000000318
 20
1.520799999999326
 30
0.0
 10
-61.50000000000364
 20
1.620299999999588
 30
0.0
  0
SPLINE
  5
12468
330
12372
100
AcDbEntity
  8
Zwaluwstaartplaat
370
    90
100
AcDbSpline
210
0.0
220
0.0
230
1.0
 70
  1288
 71
     3
 72
    12
 73
     8
 74
     0
 42
0.0000000001
 43
0.0000000001
 40
0.0
 40
0.0
 40
0.0
 40
0.0
 40
0.5
 40
0.5
 40
0.5
 40
0.500000001
 40
1.0
 40
1.0
 40
1.0
 40
1.0
 10
-28.26130000000376
 20
15.99999999999909
 30
0.0
 10
-27.54110000000401
 20
15.99999999999909
 30
0.0
 10
-26.96100000000297
 20
15.41919999999936
 30
0.0
 10
-26.96100000000297
 20
14.70029999999951
 30
0.0
 10
-26.96100000000297
 20
14.70029999999951
 30
0.0
 10
-26.96100000000297
 20
14.59029999999893
 30
0.0
 10
-26.97100000000319
 20
14.47979999999916
 30
0.0
 10
-27.00130000000354
 20
14.3800999999994
 30
0.0
  0
SPLINE
  5
12469
330
12372
100
AcDbEntity
  8
Zwaluwstaartplaat
370
   106
100
AcDbSpline
210
0.0
220
0.0
230
1.0
 70
  1288
 71
     3
 72
    12
 73
     8
 74
     0
 42
0.0000000001
 43
0.0000000001
 40
0.0
 40
0.0
 40
0.0
 40
0.0
 40
0.5
 40
0.5
 40
0.5
 40
0.500000001
 40
1.0
 40
1.0
 40
1.0
 40
1.0
 10
-92.26130000000376
 20
15.99999999999909
 30
0.0
 10
-91.541100000004
 20
15.99999999999909
 30
0.0
 10
-90.96090000000367
 20
15.41919999999936
 30
0.0
 10
-90.96090000000367
 20
14.70029999999951
 30
0.0
 10
-90.96090000000367
 20
14.70029999999951
 30
0.0
 10
-90.96090000000367
 20
14.59029999999893
 30
0.0
 10
-90.97100000000319
 20
14.47979999999916
 30
0.0
 10
-91.00180000000364
 20
14.3800999999994
 30
0.0
  0
SPLINE
  5
1246A
330
12372
100
AcDbEntity
  8
Zwaluwstaartplaat
370
   106
100
AcDbSpline
210
0.0
220
0.0
230
1.0
 70
  1288
 71
     3
 72
    12
 73
     8
 74
     0
 42
0.0000000001
 43
0.0000000001
 40
0.0
 40
0.0
 40
0.0
 40
0.0
 40
0.5
 40
0.5
 40
0.5
 40
0.500000001
 40
1.0
 40
1.0
 40
1.0
 40
1.0
 10
-63.66200000000389
 20
15.99999999999909
 30
0.0
 10
-64.38100000000304
 20
15.99999999999909
 30
0.0
 10
-64.96160000000418
 20
15.41919999999936
 30
0.0
 10
-64.96160000000418
 20
14.70029999999951
 30
0.0
 10
-64.96160000000418
 20
14.70029999999951
 30
0.0
 10
-64.96160000000418
 20
14.59029999999893
 30
0.0
 10
-64.95200000000295
 20
14.47979999999916
 30
0.0
 10
-64.9214000000029
 20
14.3800999999994
 30
0.0
  0
SPLINE
  5
1246B
330
12372
100
AcDbEntity
  8
Zwaluwstaartplaat
370
   106
100
AcDbSpline
210
0.0
220
0.0
230
1.0
 70
  1176
 71
     3
 72
     8
 73
     4
 74
     0
 42
0.000000001
 43
0.0000000001
 40
0.0
 40
0.0
 40
0.0
 40
0.0
 40
1.0
 40
1.0
 40
1.0
 40
1.0
 10
-93.16090000000441
 20
-0.0000000000009095
 30
0.0
 10
-83.02381983163469
 20
0.000066666665892
 30
0.0
 10
-72.88673966326496
 20
0.0001333333326935
 30
0.0
 10
-62.74965949489524
 20
0.000199999999495
 30
0.0
  0
SPLINE
  5
1246C
330
12372
100
AcDbEntity
  8
Zwaluwstaartplaat
370
   106
100
AcDbSpline
210
0.0
220
0.0
230
1.0
 70
  1176
 71
     3
 72
     8
 73
     4
 74
     0
 42
0.000000001
 43
0.0000000001
 40
0.0
 40
0.0
 40
0.0
 40
0.0
 40
1.0
 40
1.0
 40
1.0
 40
1.0
 10
-191.761478983617
 20
15.9946283359659
 30
0.0
 10
-179.9280456502838
 20
15.9946283359659
 30
0.0
 10
-168.0946123169506
 20
15.9946283359659
 30
0.0
 10
-156.2611789836173
 20
15.9946283359659
 30
0.0
  0
SPLINE
  5
1246D
330
12372
100
AcDbEntity
  8
Zwaluwstaartplaat
370
   106
100
AcDbSpline
210
0.0
220
0.0
230
1.0
 70
  1176
 71
     3
 72
     8
 73
     4
 74
     0
 42
0.000000001
 43
0.0000000001
 40
0.0
 40
0.0
 40
0.0
 40
0.0
 40
1.0
 40
1.0
 40
1.0
 40
1.0
 10
-158.4214789836169
 20
1.614928335966396
 30
0.0
 10
-157.2815456502837
 20
5.868195002633001
 30
0.0
 10
-156.1416123169504
 20
10.1214616692996
 30
0.0
 10
-155.0016789836172
 20
14.37472833596621
 30
0.0
  0
SPLINE
  5
1246E
330
12372
100
AcDbEntity
  8
Zwaluwstaartplaat
370
   106
100
AcDbSpline
210
0.0
220
0.0
230
1.0
 70
  1176
 71
     3
 72
     8
 73
     4
 74
     0
 42
0.000000001
 43
0.0000000001
 40
0.0
 40
0.0
 40
0.0
 40
0.0
 40
1.0
 40
1.0
 40
1.0
 40
1.0
 10
-125.4998789836172
 20
1.614928335966396
 30
0.0
 10
-126.6403456502836
 20
5.868195002633001
 30
0.0
 10
-127.7808123169501
 20
10.1214616692996
 30
0.0
 10
-128.9212789836165
 20
14.37472833596621
 30
0.0
  0
SPLINE
  5
1246F
330
12372
100
AcDbEntity
  8
Zwaluwstaartplaat
370
    90
100
AcDbSpline
210
0.0
220
0.0
230
1.0
 70
  1288
 71
     3
 72
    12
 73
     8
 74
     0
 42
0.0000000001
 43
0.0000000001
 40
0.0
 40
0.0
 40
0.0
 40
0.0
 40
0.5
 40
0.5
 40
0.5
 40
0.500000001
 40
1.0
 40
1.0
 40
1.0
 40
1.0
 10
-157.160778983618
 20
-0.0053716640341008
 30
0.0
 10
-157.8823789836169
 20
-0.0053716640341008
 30
0.0
 10
-158.4607789836173
 20
0.5754283359665351
 30
0.0
 10
-158.4607789836173
 20
1.294428335966586
 30
0.0
 10
-158.4607789836173
 20
1.294428335966586
 30
0.0
 10
-158.4607789836173
 20
1.404428335966258
 30
0.0
 10
-158.4510789836167
 20
1.515428335966134
 30
0.0
 10
-158.4214789836169
 20
1.614928335966396
 30
0.0
  0
SPLINE
  5
12470
330
12372
100
AcDbEntity
  8
Zwaluwstaartplaat
370
    90
100
AcDbSpline
210
0.0
220
0.0
230
1.0
 70
  1288
 71
     3
 72
    12
 73
     8
 74
     0
 42
0.0000000001
 43
0.0000000001
 40
0.0
 40
0.0
 40
0.0
 40
0.0
 40
0.5
 40
0.5
 40
0.5
 40
0.500000001
 40
1.0
 40
1.0
 40
1.0
 40
1.0
 10
-126.7606789836172
 20
-0.0053716640341008
 30
0.0
 10
-126.0416789836181
 20
-0.0053716640341008
 30
0.0
 10
-125.4608789836165
 20
0.5754283359665351
 30
0.0
 10
-125.4608789836165
 20
1.294428335966586
 30
0.0
 10
-125.4608789836165
 20
1.294428335966586
 30
0.0
 10
-125.4608789836165
 20
1.404428335966258
 30
0.0
 10
-125.4708789836168
 20
1.515428335966134
 30
0.0
 10
-125.4998789836172
 20
1.614928335966396
 30
0.0
  0
SPLINE
  5
12471
330
12372
100
AcDbEntity
  8
Zwaluwstaartplaat
370
   106
100
AcDbSpline
210
0.0
220
0.0
230
1.0
 70
  1288
 71
     3
 72
    12
 73
     8
 74
     0
 42
0.0000000001
 43
0.0000000001
 40
0.0
 40
0.0
 40
0.0
 40
0.0
 40
0.5
 40
0.5
 40
0.5
 40
0.500000001
 40
1.0
 40
1.0
 40
1.0
 40
1.0
 10
-156.2611789836173
 20
15.9946283359659
 30
0.0
 10
-155.5409789836176
 20
15.9946283359659
 30
0.0
 10
-154.9607789836173
 20
15.41382833596617
 30
0.0
 10
-154.9607789836173
 20
14.69492833596632
 30
0.0
 10
-154.9607789836173
 20
14.69492833596632
 30
0.0
 10
-154.9607789836173
 20
14.58492833596574
 30
0.0
 10
-154.9708789836168
 20
14.47442833596596
 30
0.0
 10
-155.0016789836172
 20
14.37472833596621
 30
0.0
  0
SPLINE
  5
12472
330
12372
100
AcDbEntity
  8
Zwaluwstaartplaat
370
   106
100
AcDbSpline
210
0.0
220
0.0
230
1.0
 70
  1288
 71
     3
 72
    12
 73
     8
 74
     0
 42
0.0000000001
 43
0.0000000001
 40
0.0
 40
0.0
 40
0.0
 40
0.0
 40
0.5
 40
0.5
 40
0.5
 40
0.500000001
 40
1.0
 40
1.0
 40
1.0
 40
1.0
 10
-127.6618789836175
 20
15.9946283359659
 30
0.0
 10
-128.3808789836166
 20
15.9946283359659
 30
0.0
 10
-128.9614789836178
 20
15.41382833596617
 30
0.0
 10
-128.9614789836178
 20
14.69492833596632
 30
0.0
 10
-128.9614789836178
 20
14.69492833596632
 30
0.0
 10
-128.9614789836178
 20
14.58492833596574
 30
0.0
 10
-128.9518789836165
 20
14.47442833596596
 30
0.0
 10
-128.9212789836165
 20
14.37472833596621
 30
0.0
  0
SPLINE
  5
12473
330
12372
100
AcDbEntity
  8
Zwaluwstaartplaat
370
   106
100
AcDbSpline
210
0.0
220
0.0
230
1.0
 70
  1176
 71
     3
 72
     8
 73
     4
 74
     0
 42
0.000000001
 43
0.0000000001
 40
0.0
 40
0.0
 40
0.0
 40
0.0
 40
1.0
 40
1.0
 40
1.0
 40
1.0
 10
-157.160778983618
 20
-0.0053716640341008
 30
0.0
 10
-147.0236988152483
 20
-0.0053049973672993
 30
0.0
 10
-136.8866186468785
 20
-0.0052383307004978
 30
0.0
 10
-126.7495384785088
 20
-0.0051716640336963
 30
0.0
  0
SPLINE
  5
12474
330
12372
100
AcDbEntity
  8
Zwaluwstaartplaat
370
   106
100
AcDbSpline
210
0.0
220
0.0
230
1.0
 70
  1176
 71
     3
 72
     8
 73
     4
 74
     0
 42
0.000000001
 43
0.0000000001
 40
0.0
 40
0.0
 40
0.0
 40
0.0
 40
1.0
 40
1.0
 40
1.0
 40
1.0
 10
-255.7613579672325
 20
16.0
 30
0.0
 10
-243.9279246338992
 20
16.0
 30
0.0
 10
-232.094491300566
 20
16.0
 30
0.0
 10
-220.2610579672328
 20
16.0
 30
0.0
  0
SPLINE
  5
12475
330
12372
100
AcDbEntity
  8
Zwaluwstaartplaat
370
   106
100
AcDbSpline
210
0.0
220
0.0
230
1.0
 70
  1176
 71
     3
 72
     8
 73
     4
 74
     0
 42
0.000000001
 43
0.0000000001
 40
0.0
 40
0.0
 40
0.0
 40
0.0
 40
1.0
 40
1.0
 40
1.0
 40
1.0
 10
-222.4213579672323
 20
1.620300000000497
 30
0.0
 10
-221.2814246338991
 20
5.873566666667102
 30
0.0
 10
-220.1414913005659
 20
10.1268333333337
 30
0.0
 10
-219.0015579672326
 20
14.38010000000031
 30
0.0
  0
SPLINE
  5
12476
330
12372
100
AcDbEntity
  8
Zwaluwstaartplaat
370
   106
100
AcDbSpline
210
0.0
220
0.0
230
1.0
 70
  1176
 71
     3
 72
     8
 73
     4
 74
     0
 42
0.000000001
 43
0.0000000001
 40
0.0
 40
0.0
 40
0.0
 40
0.0
 40
1.0
 40
1.0
 40
1.0
 40
1.0
 10
-189.4997579672326
 20
1.620300000000497
 30
0.0
 10
-190.6402246338991
 20
5.873566666667102
 30
0.0
 10
-191.7806913005655
 20
10.1268333333337
 30
0.0
 10
-192.9211579672319
 20
14.38010000000031
 30
0.0
  0
SPLINE
  5
12477
330
12372
100
AcDbEntity
  8
Zwaluwstaartplaat
370
    90
100
AcDbSpline
210
0.0
220
0.0
230
1.0
 70
  1288
 71
     3
 72
    12
 73
     8
 74
     0
 42
0.0000000001
 43
0.0000000001
 40
0.0
 40
0.0
 40
0.0
 40
0.0
 40
0.5
 40
0.5
 40
0.5
 40
0.500000001
 40
1.0
 40
1.0
 40
1.0
 40
1.0
 10
-221.1606579672334
 20
0.0
 30
0.0
 10
-221.8822579672324
 20
0.0
 30
0.0
 10
-222.4606579672327
 20
0.580800000000636
 30
0.0
 10
-222.4606579672327
 20
1.299800000000686
 30
0.0
 10
-222.4606579672327
 20
1.299800000000686
 30
0.0
 10
-222.4606579672327
 20
1.409800000000359
 30
0.0
 10
-222.4509579672321
 20
1.520800000000235
 30
0.0
 10
-222.4213579672323
 20
1.620300000000497
 30
0.0
  0
SPLINE
  5
12478
330
12372
100
AcDbEntity
  8
Zwaluwstaartplaat
370
    90
100
AcDbSpline
210
0.0
220
0.0
230
1.0
 70
  1288
 71
     3
 72
    12
 73
     8
 74
     0
 42
0.0000000001
 43
0.0000000001
 40
0.0
 40
0.0
 40
0.0
 40
0.0
 40
0.5
 40
0.5
 40
0.5
 40
0.500000001
 40
1.0
 40
1.0
 40
1.0
 40
1.0
 10
-190.7605579672327
 20
0.0
 30
0.0
 10
-190.0415579672335
 20
0.0
 30
0.0
 10
-189.4607579672319
 20
0.580800000000636
 30
0.0
 10
-189.4607579672319
 20
1.299800000000686
 30
0.0
 10
-189.4607579672319
 20
1.299800000000686
 30
0.0
 10
-189.4607579672319
 20
1.409800000000359
 30
0.0
 10
-189.4707579672322
 20
1.520800000000235
 30
0.0
 10
-189.4997579672326
 20
1.620300000000497
 30
0.0
  0
SPLINE
  5
12479
330
12372
100
AcDbEntity
  8
Zwaluwstaartplaat
370
   106
100
AcDbSpline
210
0.0
220
0.0
230
1.0
 70
  1288
 71
     3
 72
    12
 73
     8
 74
     0
 42
0.0000000001
 43
0.0000000001
 40
0.0
 40
0.0
 40
0.0
 40
0.0
 40
0.5
 40
0.5
 40
0.5
 40
0.500000001
 40
1.0
 40
1.0
 40
1.0
 40
1.0
 10
-220.2610579672328
 20
16.0
 30
0.0
 10
-219.540857967233
 20
16.0
 30
0.0
 10
-218.9606579672327
 20
15.41920000000027
 30
0.0
 10
-218.9606579672327
 20
14.70030000000042
 30
0.0
 10
-218.9606579672327
 20
14.70030000000042
 30
0.0
 10
-218.9606579672327
 20
14.59029999999984
 30
0.0
 10
-218.9707579672322
 20
14.47980000000007
 30
0.0
 10
-219.0015579672326
 20
14.38010000000031
 30
0.0
  0
SPLINE
  5
1247A
330
12372
100
AcDbEntity
  8
Zwaluwstaartplaat
370
   106
100
AcDbSpline
210
0.0
220
0.0
230
1.0
 70
  1288
 71
     3
 72
    12
 73
     8
 74
     0
 42
0.0000000001
 43
0.0000000001
 40
0.0
 40
0.0
 40
0.0
 40
0.0
 40
0.5
 40
0.5
 40
0.5
 40
0.500000001
 40
1.0
 40
1.0
 40
1.0
 40
1.0
 10
-191.6617579672329
 20
16.0
 30
0.0
 10
-192.380757967232
 20
16.0
 30
0.0
 10
-192.9613579672332
 20
15.41920000000027
 30
0.0
 10
-192.9613579672332
 20
14.70030000000042
 30
0.0
 10
-192.9613579672332
 20
14.70030000000042
 30
0.0
 10
-192.9613579672332
 20
14.59029999999984
 30
0.0
 10
-192.9517579672319
 20
14.47980000000007
 30
0.0
 10
-192.9211579672319
 20
14.38010000000031
 30
0.0
  0
SPLINE
  5
1247B
330
12372
100
AcDbEntity
  8
Zwaluwstaartplaat
370
   106
100
AcDbSpline
210
0.0
220
0.0
230
1.0
 70
  1176
 71
     3
 72
     8
 73
     4
 74
     0
 42
0.000000001
 43
0.0000000001
 40
0.0
 40
0.0
 40
0.0
 40
0.0
 40
1.0
 40
1.0
 40
1.0
 40
1.0
 10
-221.1606579672334
 20
0.0
 30
0.0
 10
-211.0235777988637
 20
0.0000666666668015
 30
0.0
 10
-200.886497630494
 20
0.000133333333603
 30
0.0
 10
-190.7494174621242
 20
0.0002000000004045
 30
0.0
  0
SPLINE
  5
1247C
330
12372
100
AcDbEntity
  8
Zwaluwstaartplaat
370
   106
100
AcDbSpline
210
0.0
220
0.0
230
1.0
 70
  1176
 71
     3
 72
     8
 73
     4
 74
     0
 42
0.000000001
 43
0.0000000001
 40
0.0
 40
0.0
 40
0.0
 40
0.0
 40
1.0
 40
1.0
 40
1.0
 40
1.0
 10
-319.7612369508461
 20
15.99462833596681
 30
0.0
 10
-307.9278036175129
 20
15.99462833596681
 30
0.0
 10
-296.0943702841796
 20
15.99462833596681
 30
0.0
 10
-284.2609369508464
 20
15.99462833596681
 30
0.0
  0
SPLINE
  5
1247D
330
12372
100
AcDbEntity
  8
Zwaluwstaartplaat
370
   106
100
AcDbSpline
210
0.0
220
0.0
230
1.0
 70
  1176
 71
     3
 72
     8
 73
     4
 74
     0
 42
0.000000001
 43
0.0000000001
 40
0.0
 40
0.0
 40
0.0
 40
0.0
 40
1.0
 40
1.0
 40
1.0
 40
1.0
 10
-286.4212369508459
 20
1.614928335967306
 30
0.0
 10
-285.2813036175127
 20
5.86819500263391
 30
0.0
 10
-284.1413702841795
 20
10.12146166930051
 30
0.0
 10
-283.0014369508463
 20
14.37472833596712
 30
0.0
  0
SPLINE
  5
1247E
330
12372
100
AcDbEntity
  8
Zwaluwstaartplaat
370
   106
100
AcDbSpline
210
0.0
220
0.0
230
1.0
 70
  1176
 71
     3
 72
     8
 73
     4
 74
     0
 42
0.000000001
 43
0.0000000001
 40
0.0
 40
0.0
 40
0.0
 40
0.0
 40
1.0
 40
1.0
 40
1.0
 40
1.0
 10
-253.4996369508462
 20
1.614928335967306
 30
0.0
 10
-254.6401036175127
 20
5.86819500263391
 30
0.0
 10
-255.7805702841791
 20
10.12146166930051
 30
0.0
 10
-256.9210369508455
 20
14.37472833596712
 30
0.0
  0
SPLINE
  5
1247F
330
12372
100
AcDbEntity
  8
Zwaluwstaartplaat
370
    90
100
AcDbSpline
210
0.0
220
0.0
230
1.0
 70
  1288
 71
     3
 72
    12
 73
     8
 74
     0
 42
0.0000000001
 43
0.0000000001
 40
0.0
 40
0.0
 40
0.0
 40
0.0
 40
0.5
 40
0.5
 40
0.5
 40
0.500000001
 40
1.0
 40
1.0
 40
1.0
 40
1.0
 10
-285.160536950847
 20
-0.0053716640331913
 30
0.0
 10
-285.882136950846
 20
-0.0053716640331913
 30
0.0
 10
-286.4605369508463
 20
0.5754283359674446
 30
0.0
 10
-286.4605369508463
 20
1.294428335967495
 30
0.0
 10
-286.4605369508463
 20
1.294428335967495
 30
0.0
 10
-286.4605369508463
 20
1.404428335967168
 30
0.0
 10
-286.4508369508458
 20
1.515428335967044
 30
0.0
 10
-286.4212369508459
 20
1.614928335967306
 30
0.0
  0
SPLINE
  5
12480
330
12372
100
AcDbEntity
  8
Zwaluwstaartplaat
370
    90
100
AcDbSpline
210
0.0
220
0.0
230
1.0
 70
  1288
 71
     3
 72
    12
 73
     8
 74
     0
 42
0.0000000001
 43
0.0000000001
 40
0.0
 40
0.0
 40
0.0
 40
0.0
 40
0.5
 40
0.5
 40
0.5
 40
0.500000001
 40
1.0
 40
1.0
 40
1.0
 40
1.0
 10
-254.7604369508463
 20
-0.0053716640331913
 30
0.0
 10
-254.0414369508471
 20
-0.0053716640331913
 30
0.0
 10
-253.4606369508456
 20
0.5754283359674446
 30
0.0
 10
-253.4606369508456
 20
1.294428335967495
 30
0.0
 10
-253.4606369508456
 20
1.294428335967495
 30
0.0
 10
-253.4606369508456
 20
1.404428335967168
 30
0.0
 10
-253.4706369508458
 20
1.515428335967044
 30
0.0
 10
-253.4996369508462
 20
1.614928335967306
 30
0.0
  0
SPLINE
  5
12481
330
12372
100
AcDbEntity
  8
Zwaluwstaartplaat
370
   106
100
AcDbSpline
210
0.0
220
0.0
230
1.0
 70
  1288
 71
     3
 72
    12
 73
     8
 74
     0
 42
0.0000000001
 43
0.0000000001
 40
0.0
 40
0.0
 40
0.0
 40
0.0
 40
0.5
 40
0.5
 40
0.5
 40
0.500000001
 40
1.0
 40
1.0
 40
1.0
 40
1.0
 10
-284.2609369508464
 20
15.99462833596681
 30
0.0
 10
-283.5407369508466
 20
15.99462833596681
 30
0.0
 10
-282.9605369508463
 20
15.41382833596708
 30
0.0
 10
-282.9605369508463
 20
14.69492833596723
 30
0.0
 10
-282.9605369508463
 20
14.69492833596723
 30
0.0
 10
-282.9605369508463
 20
14.58492833596665
 30
0.0
 10
-282.9706369508458
 20
14.47442833596688
 30
0.0
 10
-283.0014369508463
 20
14.37472833596712
 30
0.0
  0
SPLINE
  5
12482
330
12372
100
AcDbEntity
  8
Zwaluwstaartplaat
370
   106
100
AcDbSpline
210
0.0
220
0.0
230
1.0
 70
  1288
 71
     3
 72
    12
 73
     8
 74
     0
 42
0.0000000001
 43
0.0000000001
 40
0.0
 40
0.0
 40
0.0
 40
0.0
 40
0.5
 40
0.5
 40
0.5
 40
0.500000001
 40
1.0
 40
1.0
 40
1.0
 40
1.0
 10
-255.6616369508465
 20
15.99462833596681
 30
0.0
 10
-256.3806369508457
 20
15.99462833596681
 30
0.0
 10
-256.9612369508468
 20
15.41382833596708
 30
0.0
 10
-256.9612369508468
 20
14.69492833596723
 30
0.0
 10
-256.9612369508468
 20
14.69492833596723
 30
0.0
 10
-256.9612369508468
 20
14.58492833596665
 30
0.0
 10
-256.9516369508455
 20
14.47442833596688
 30
0.0
 10
-256.9210369508455
 20
14.37472833596712
 30
0.0
  0
SPLINE
  5
12483
330
12372
100
AcDbEntity
  8
Zwaluwstaartplaat
370
   106
100
AcDbSpline
210
0.0
220
0.0
230
1.0
 70
  1176
 71
     3
 72
     8
 73
     4
 74
     0
 42
0.000000001
 43
0.0000000001
 40
0.0
 40
0.0
 40
0.0
 40
0.0
 40
1.0
 40
1.0
 40
1.0
 40
1.0
 10
-285.160536950847
 20
-0.0053716640331913
 30
0.0
 10
-275.0234567824773
 20
-0.0053049973663898
 30
0.0
 10
-264.8863766141076
 20
-0.0052383306995883
 30
0.0
 10
-254.7492964457378
 20
-0.0051716640327868
 30
0.0
  0
SPLINE
  5
12484
330
12372
100
AcDbEntity
  8
Zwaluwstaartplaat
370
   106
100
AcDbSpline
210
0.0
220
0.0
230
1.0
 70
  1176
 71
     3
 72
     8
 73
     4
 74
     0
 42
0.000000001
 43
0.0000000001
 40
0.0
 40
0.0
 40
0.0
 40
0.0
 40
1.0
 40
1.0
 40
1.0
 40
1.0
 10
-383.7611159344597
 20
15.98925667193362
 30
0.0
 10
-371.9276826011264
 20
15.98925667193362
 30
0.0
 10
-360.0942492677932
 20
15.98925667193362
 30
0.0
 10
-348.26081593446
 20
15.98925667193362
 30
0.0
  0
SPLINE
  5
12485
330
12372
100
AcDbEntity
  8
Zwaluwstaartplaat
370
   106
100
AcDbSpline
210
0.0
220
0.0
230
1.0
 70
  1176
 71
     3
 72
     8
 73
     4
 74
     0
 42
0.000000001
 43
0.0000000001
 40
0.0
 40
0.0
 40
0.0
 40
0.0
 40
1.0
 40
1.0
 40
1.0
 40
1.0
 10
-350.4211159344595
 20
1.609556671934115
 30
0.0
 10
-349.2811826011263
 20
5.862823338600719
 30
0.0
 10
-348.1412492677931
 20
10.11609000526732
 30
0.0
 10
-347.0013159344599
 20
14.36935667193393
 30
0.0
  0
SPLINE
  5
12486
330
12372
100
AcDbEntity
  8
Zwaluwstaartplaat
370
   106
100
AcDbSpline
210
0.0
220
0.0
230
1.0
 70
  1176
 71
     3
 72
     8
 73
     4
 74
     0
 42
0.000000001
 43
0.0000000001
 40
0.0
 40
0.0
 40
0.0
 40
0.0
 40
1.0
 40
1.0
 40
1.0
 40
1.0
 10
-317.4995159344598
 20
1.609556671934115
 30
0.0
 10
-318.6399826011262
 20
5.862823338600719
 30
0.0
 10
-319.7804492677927
 20
10.11609000526732
 30
0.0
 10
-320.9209159344591
 20
14.36935667193393
 30
0.0
  0
SPLINE
  5
12487
330
12372
100
AcDbEntity
  8
Zwaluwstaartplaat
370
    90
100
AcDbSpline
210
0.0
220
0.0
230
1.0
 70
  1288
 71
     3
 72
    12
 73
     8
 74
     0
 42
0.0000000001
 43
0.0000000001
 40
0.0
 40
0.0
 40
0.0
 40
0.0
 40
0.5
 40
0.5
 40
0.5
 40
0.500000001
 40
1.0
 40
1.0
 40
1.0
 40
1.0
 10
-349.1604159344606
 20
-0.0107433280663827
 30
0.0
 10
-349.8820159344596
 20
-0.0107433280663827
 30
0.0
 10
-350.4604159344599
 20
0.5700566719342533
 30
0.0
 10
-350.4604159344599
 20
1.289056671934304
 30
0.0
 10
-350.4604159344599
 20
1.289056671934304
 30
0.0
 10
-350.4604159344599
 20
1.399056671933976
 30
0.0
 10
-350.4507159344594
 20
1.510056671933853
 30
0.0
 10
-350.4211159344595
 20
1.609556671934115
 30
0.0
  0
SPLINE
  5
12488
330
12372
100
AcDbEntity
  8
Zwaluwstaartplaat
370
    90
100
AcDbSpline
210
0.0
220
0.0
230
1.0
 70
  1288
 71
     3
 72
    12
 73
     8
 74
     0
 42
0.0000000001
 43
0.0000000001
 40
0.0
 40
0.0
 40
0.0
 40
0.0
 40
0.5
 40
0.5
 40
0.5
 40
0.500000001
 40
1.0
 40
1.0
 40
1.0
 40
1.0
 10
-318.7603159344599
 20
-0.0107433280663827
 30
0.0
 10
-318.0413159344607
 20
-0.0107433280663827
 30
0.0
 10
-317.4605159344592
 20
0.5700566719342533
 30
0.0
 10
-317.4605159344592
 20
1.289056671934304
 30
0.0
 10
-317.4605159344592
 20
1.289056671934304
 30
0.0
 10
-317.4605159344592
 20
1.399056671933976
 30
0.0
 10
-317.4705159344594
 20
1.510056671933853
 30
0.0
 10
-317.4995159344598
 20
1.609556671934115
 30
0.0
  0
SPLINE
  5
12489
330
12372
100
AcDbEntity
  8
Zwaluwstaartplaat
370
   106
100
AcDbSpline
210
0.0
220
0.0
230
1.0
 70
  1288
 71
     3
 72
    12
 73
     8
 74
     0
 42
0.0000000001
 43
0.0000000001
 40
0.0
 40
0.0
 40
0.0
 40
0.0
 40
0.5
 40
0.5
 40
0.5
 40
0.500000001
 40
1.0
 40
1.0
 40
1.0
 40
1.0
 10
-348.26081593446
 20
15.98925667193362
 30
0.0
 10
-347.5406159344602
 20
15.98925667193362
 30
0.0
 10
-346.9604159344599
 20
15.40845667193389
 30
0.0
 10
-346.9604159344599
 20
14.68955667193404
 30
0.0
 10
-346.9604159344599
 20
14.68955667193404
 30
0.0
 10
-346.9604159344599
 20
14.57955667193346
 30
0.0
 10
-346.9705159344594
 20
14.46905667193368
 30
0.0
 10
-347.0013159344599
 20
14.36935667193393
 30
0.0
  0
SPLINE
  5
1248A
330
12372
100
AcDbEntity
  8
Zwaluwstaartplaat
370
   106
100
AcDbSpline
210
0.0
220
0.0
230
1.0
 70
  1288
 71
     3
 72
    12
 73
     8
 74
     0
 42
0.0000000001
 43
0.0000000001
 40
0.0
 40
0.0
 40
0.0
 40
0.0
 40
0.5
 40
0.5
 40
0.5
 40
0.500000001
 40
1.0
 40
1.0
 40
1.0
 40
1.0
 10
-319.6615159344601
 20
15.98925667193362
 30
0.0
 10
-320.3805159344593
 20
15.98925667193362
 30
0.0
 10
-320.9611159344604
 20
15.40845667193389
 30
0.0
 10
-320.9611159344604
 20
14.68955667193404
 30
0.0
 10
-320.9611159344604
 20
14.68955667193404
 30
0.0
 10
-320.9611159344604
 20
14.57955667193346
 30
0.0
 10
-320.9515159344592
 20
14.46905667193368
 30
0.0
 10
-320.9209159344591
 20
14.36935667193393
 30
0.0
  0
SPLINE
  5
1248B
330
12372
100
AcDbEntity
  8
Zwaluwstaartplaat
370
   106
100
AcDbSpline
210
0.0
220
0.0
230
1.0
 70
  1176
 71
     3
 72
     8
 73
     4
 74
     0
 42
0.000000001
 43
0.0000000001
 40
0.0
 40
0.0
 40
0.0
 40
0.0
 40
1.0
 40
1.0
 40
1.0
 40
1.0
 10
-349.1604159344606
 20
-0.0107433280663827
 30
0.0
 10
-339.0233357660909
 20
-0.0106766613995812
 30
0.0
 10
-328.8862555977212
 20
-0.0106099947327797
 30
0.0
 10
-318.7491754293514
 20
-0.0105433280659781
 30
0.0
  0
SPLINE
  5
1248C
330
12372
100
AcDbEntity
  8
Zwaluwstaartplaat
370
   106
100
AcDbSpline
210
0.0
220
0.0
230
1.0
 70
  1176
 71
     3
 72
     8
 73
     4
 74
     0
 42
0.000000001
 43
0.0000000001
 40
0.0
 40
0.0
 40
0.0
 40
0.0
 40
1.0
 40
1.0
 40
1.0
 40
1.0
 10
-447.7609949180732
 20
15.98388500790042
 30
0.0
 10
-435.92756158474
 20
15.98388500790042
 30
0.0
 10
-424.0941282514068
 20
15.98388500790042
 30
0.0
 10
-412.2606949180736
 20
15.98388500790042
 30
0.0
  0
SPLINE
  5
1248D
330
12372
100
AcDbEntity
  8
Zwaluwstaartplaat
370
   106
100
AcDbSpline
210
0.0
220
0.0
230
1.0
 70
  1176
 71
     3
 72
     8
 73
     4
 74
     0
 42
0.000000001
 43
0.0000000001
 40
0.0
 40
0.0
 40
0.0
 40
0.0
 40
1.0
 40
1.0
 40
1.0
 40
1.0
 10
-414.4209949180731
 20
1.604185007900923
 30
0.0
 10
-413.2810615847398
 20
5.857451674567528
 30
0.0
 10
-412.1411282514066
 20
10.11071834123413
 30
0.0
 10
-411.0011949180734
 20
14.36398500790074
 30
0.0
  0
SPLINE
  5
1248E
330
12372
100
AcDbEntity
  8
Zwaluwstaartplaat
370
   106
100
AcDbSpline
210
0.0
220
0.0
230
1.0
 70
  1176
 71
     3
 72
     8
 73
     4
 74
     0
 42
0.000000001
 43
0.0000000001
 40
0.0
 40
0.0
 40
0.0
 40
0.0
 40
1.0
 40
1.0
 40
1.0
 40
1.0
 10
-381.4993949180735
 20
1.604185007900923
 30
0.0
 10
-382.6398615847399
 20
5.857451674567528
 30
0.0
 10
-383.7803282514063
 20
10.11071834123413
 30
0.0
 10
-384.9207949180727
 20
14.36398500790074
 30
0.0
  0
SPLINE
  5
1248F
330
12372
100
AcDbEntity
  8
Zwaluwstaartplaat
370
    90
100
AcDbSpline
210
0.0
220
0.0
230
1.0
 70
  1288
 71
     3
 72
    12
 73
     8
 74
     0
 42
0.0000000001
 43
0.0000000001
 40
0.0
 40
0.0
 40
0.0
 40
0.0
 40
0.5
 40
0.5
 40
0.5
 40
0.500000001
 40
1.0
 40
1.0
 40
1.0
 40
1.0
 10
-413.1602949180742
 20
-0.016114992099574
 30
0.0
 10
-413.8818949180731
 20
-0.016114992099574
 30
0.0
 10
-414.4602949180734
 20
0.5646850079010619
 30
0.0
 10
-414.4602949180734
 20
1.283685007901112
 30
0.0
 10
-414.4602949180734
 20
1.283685007901112
 30
0.0
 10
-414.4602949180734
 20
1.393685007900785
 30
0.0
 10
-414.450594918073
 20
1.504685007900661
 30
0.0
 10
-414.4209949180731
 20
1.604185007900923
 30
0.0
  0
SPLINE
  5
12490
330
12372
100
AcDbEntity
  8
Zwaluwstaartplaat
370
    90
100
AcDbSpline
210
0.0
220
0.0
230
1.0
 70
  1288
 71
     3
 72
    12
 73
     8
 74
     0
 42
0.0000000001
 43
0.0000000001
 40
0.0
 40
0.0
 40
0.0
 40
0.0
 40
0.5
 40
0.5
 40
0.5
 40
0.500000001
 40
1.0
 40
1.0
 40
1.0
 40
1.0
 10
-382.7601949180735
 20
-0.016114992099574
 30
0.0
 10
-382.0411949180743
 20
-0.016114992099574
 30
0.0
 10
-381.4603949180728
 20
0.5646850079010619
 30
0.0
 10
-381.4603949180728
 20
1.283685007901112
 30
0.0
 10
-381.4603949180728
 20
1.283685007901112
 30
0.0
 10
-381.4603949180728
 20
1.393685007900785
 30
0.0
 10
-381.470394918073
 20
1.504685007900661
 30
0.0
 10
-381.4993949180735
 20
1.604185007900923
 30
0.0
  0
SPLINE
  5
12491
330
12372
100
AcDbEntity
  8
Zwaluwstaartplaat
370
   106
100
AcDbSpline
210
0.0
220
0.0
230
1.0
 70
  1288
 71
     3
 72
    12
 73
     8
 74
     0
 42
0.0000000001
 43
0.0000000001
 40
0.0
 40
0.0
 40
0.0
 40
0.0
 40
0.5
 40
0.5
 40
0.5
 40
0.500000001
 40
1.0
 40
1.0
 40
1.0
 40
1.0
 10
-412.2606949180736
 20
15.98388500790042
 30
0.0
 10
-411.5404949180738
 20
15.98388500790042
 30
0.0
 10
-410.9602949180734
 20
15.4030850079007
 30
0.0
 10
-410.9602949180734
 20
14.68418500790085
 30
0.0
 10
-410.9602949180734
 20
14.68418500790085
 30
0.0
 10
-410.9602949180734
 20
14.57418500790027
 30
0.0
 10
-410.970394918073
 20
14.46368500790049
 30
0.0
 10
-411.0011949180734
 20
14.36398500790074
 30
0.0
  0
SPLINE
  5
12492
330
12372
100
AcDbEntity
  8
Zwaluwstaartplaat
370
   106
100
AcDbSpline
210
0.0
220
0.0
230
1.0
 70
  1288
 71
     3
 72
    12
 73
     8
 74
     0
 42
0.0000000001
 43
0.0000000001
 40
0.0
 40
0.0
 40
0.0
 40
0.0
 40
0.5
 40
0.5
 40
0.5
 40
0.500000001
 40
1.0
 40
1.0
 40
1.0
 40
1.0
 10
-383.6613949180737
 20
15.98388500790042
 30
0.0
 10
-384.3803949180728
 20
15.98388500790042
 30
0.0
 10
-384.960994918074
 20
15.4030850079007
 30
0.0
 10
-384.960994918074
 20
14.68418500790085
 30
0.0
 10
-384.960994918074
 20
14.68418500790085
 30
0.0
 10
-384.960994918074
 20
14.57418500790027
 30
0.0
 10
-384.9513949180728
 20
14.46368500790049
 30
0.0
 10
-384.9207949180727
 20
14.36398500790074
 30
0.0
  0
SPLINE
  5
12493
330
12372
100
AcDbEntity
  8
Zwaluwstaartplaat
370
   106
100
AcDbSpline
210
0.0
220
0.0
230
1.0
 70
  1176
 71
     3
 72
     8
 73
     4
 74
     0
 42
0.000000001
 43
0.0000000001
 40
0.0
 40
0.0
 40
0.0
 40
0.0
 40
1.0
 40
1.0
 40
1.0
 40
1.0
 10
-413.1602949180742
 20
-0.016114992099574
 30
0.0
 10
-403.0232147497044
 20
-0.0160483254327725
 30
0.0
 10
-392.8861345813348
 20
-0.015981658765971
 30
0.0
 10
-382.7490544129651
 20
-0.0159149920991695
 30
0.0
  0
SPLINE
  5
12494
330
12372
100
AcDbEntity
  8
Zwaluwstaartplaat
370
   106
100
AcDbSpline
210
0.0
220
0.0
230
1.0
 70
  1176
 71
     3
 72
     8
 73
     4
 74
     0
 42
0.000000001
 43
0.0000000001
 40
0.0
 40
0.0
 40
0.0
 40
0.0
 40
1.0
 40
1.0
 40
1.0
 40
1.0
 10
-511.7608739016868
 20
16.0
 30
0.0
 10
-499.9274405683536
 20
16.0
 30
0.0
 10
-488.0940072350203
 20
16.0
 30
0.0
 10
-476.2605739016871
 20
16.0
 30
0.0
  0
SPLINE
  5
12495
330
12372
100
AcDbEntity
  8
Zwaluwstaartplaat
370
   106
100
AcDbSpline
210
0.0
220
0.0
230
1.0
 70
  1176
 71
     3
 72
     8
 73
     4
 74
     0
 42
0.000000001
 43
0.0000000001
 40
0.0
 40
0.0
 40
0.0
 40
0.0
 40
1.0
 40
1.0
 40
1.0
 40
1.0
 10
-478.4208739016867
 20
1.620300000000497
 30
0.0
 10
-477.2809405683534
 20
5.873566666667102
 30
0.0
 10
-476.1410072350202
 20
10.1268333333337
 30
0.0
 10
-475.001073901687
 20
14.38010000000031
 30
0.0
  0
SPLINE
  5
12496
330
12372
100
AcDbEntity
  8
Zwaluwstaartplaat
370
   106
100
AcDbSpline
210
0.0
220
0.0
230
1.0
 70
  1176
 71
     3
 72
     8
 73
     4
 74
     0
 42
0.000000001
 43
0.0000000001
 40
0.0
 40
0.0
 40
0.0
 40
0.0
 40
1.0
 40
1.0
 40
1.0
 40
1.0
 10
-445.499273901687
 20
1.620300000000497
 30
0.0
 10
-446.6397405683534
 20
5.873566666667102
 30
0.0
 10
-447.7802072350199
 20
10.1268333333337
 30
0.0
 10
-448.9206739016863
 20
14.38010000000031
 30
0.0
  0
SPLINE
  5
12497
330
12372
100
AcDbEntity
  8
Zwaluwstaartplaat
370
    90
100
AcDbSpline
210
0.0
220
0.0
230
1.0
 70
  1288
 71
     3
 72
    12
 73
     8
 74
     0
 42
0.0000000001
 43
0.0000000001
 40
0.0
 40
0.0
 40
0.0
 40
0.0
 40
0.5
 40
0.5
 40
0.5
 40
0.500000001
 40
1.0
 40
1.0
 40
1.0
 40
1.0
 10
-477.1601739016878
 20
0.0
 30
0.0
 10
-477.8817739016867
 20
0.0
 30
0.0
 10
-478.4601739016871
 20
0.580800000000636
 30
0.0
 10
-478.4601739016871
 20
1.299800000000686
 30
0.0
 10
-478.4601739016871
 20
1.299800000000686
 30
0.0
 10
-478.4601739016871
 20
1.409800000000359
 30
0.0
 10
-478.4504739016865
 20
1.520800000000235
 30
0.0
 10
-478.4208739016867
 20
1.620300000000497
 30
0.0
  0
SPLINE
  5
12498
330
12372
100
AcDbEntity
  8
Zwaluwstaartplaat
370
    90
100
AcDbSpline
210
0.0
220
0.0
230
1.0
 70
  1288
 71
     3
 72
    12
 73
     8
 74
     0
 42
0.0000000001
 43
0.0000000001
 40
0.0
 40
0.0
 40
0.0
 40
0.0
 40
0.5
 40
0.5
 40
0.5
 40
0.500000001
 40
1.0
 40
1.0
 40
1.0
 40
1.0
 10
-446.760073901687
 20
0.0
 30
0.0
 10
-446.0410739016879
 20
0.0
 30
0.0
 10
-445.4602739016864
 20
0.580800000000636
 30
0.0
 10
-445.4602739016864
 20
1.299800000000686
 30
0.0
 10
-445.4602739016864
 20
1.299800000000686
 30
0.0
 10
-445.4602739016864
 20
1.409800000000359
 30
0.0
 10
-445.4702739016865
 20
1.520800000000235
 30
0.0
 10
-445.499273901687
 20
1.620300000000497
 30
0.0
  0
SPLINE
  5
12499
330
12372
100
AcDbEntity
  8
Zwaluwstaartplaat
370
   106
100
AcDbSpline
210
0.0
220
0.0
230
1.0
 70
  1288
 71
     3
 72
    12
 73
     8
 74
     0
 42
0.0000000001
 43
0.0000000001
 40
0.0
 40
0.0
 40
0.0
 40
0.0
 40
0.5
 40
0.5
 40
0.5
 40
0.500000001
 40
1.0
 40
1.0
 40
1.0
 40
1.0
 10
-476.2605739016871
 20
16.0
 30
0.0
 10
-475.5403739016874
 20
16.0
 30
0.0
 10
-474.960173901687
 20
15.41920000000027
 30
0.0
 10
-474.960173901687
 20
14.70030000000042
 30
0.0
 10
-474.960173901687
 20
14.70030000000042
 30
0.0
 10
-474.960173901687
 20
14.59029999999984
 30
0.0
 10
-474.9702739016866
 20
14.47980000000007
 30
0.0
 10
-475.001073901687
 20
14.38010000000031
 30
0.0
  0
SPLINE
  5
1249A
330
12372
100
AcDbEntity
  8
Zwaluwstaartplaat
370
   106
100
AcDbSpline
210
0.0
220
0.0
230
1.0
 70
  1288
 71
     3
 72
    12
 73
     8
 74
     0
 42
0.0000000001
 43
0.0000000001
 40
0.0
 40
0.0
 40
0.0
 40
0.0
 40
0.5
 40
0.5
 40
0.5
 40
0.500000001
 40
1.0
 40
1.0
 40
1.0
 40
1.0
 10
-447.6612739016872
 20
16.0
 30
0.0
 10
-448.3802739016864
 20
16.0
 30
0.0
 10
-448.9608739016875
 20
15.41920000000027
 30
0.0
 10
-448.9608739016875
 20
14.70030000000042
 30
0.0
 10
-448.9608739016875
 20
14.70030000000042
 30
0.0
 10
-448.9608739016875
 20
14.59029999999984
 30
0.0
 10
-448.9512739016864
 20
14.47980000000007
 30
0.0
 10
-448.9206739016863
 20
14.38010000000031
 30
0.0
  0
SPLINE
  5
1249B
330
12372
100
AcDbEntity
  8
Zwaluwstaartplaat
370
   106
100
AcDbSpline
210
0.0
220
0.0
230
1.0
 70
  1176
 71
     3
 72
     8
 73
     4
 74
     0
 42
0.000000001
 43
0.0000000001
 40
0.0
 40
0.0
 40
0.0
 40
0.0
 40
1.0
 40
1.0
 40
1.0
 40
1.0
 10
-477.1601739016878
 20
0.0
 30
0.0
 10
-467.023093733318
 20
0.0000666666668015
 30
0.0
 10
-456.8860135649483
 20
0.000133333333603
 30
0.0
 10
-446.7489333965786
 20
0.0002000000004045
 30
0.0
  0
SPLINE
  5
1249C
330
12372
100
AcDbEntity
  8
Zwaluwstaartplaat
370
   106
100
AcDbSpline
210
0.0
220
0.0
230
1.0
 70
  1176
 71
     3
 72
     8
 73
     4
 74
     0
 42
0.000000001
 43
0.0000000001
 40
0.0
 40
0.0
 40
0.0
 40
0.0
 40
1.0
 40
1.0
 40
1.0
 40
1.0
 10
-575.7607528853005
 20
16.0
 30
0.0
 10
-563.9273195519672
 20
16.0
 30
0.0
 10
-552.093886218634
 20
16.0
 30
0.0
 10
-540.2604528853007
 20
16.0
 30
0.0
  0
SPLINE
  5
1249D
330
12372
100
AcDbEntity
  8
Zwaluwstaartplaat
370
   106
100
AcDbSpline
210
0.0
220
0.0
230
1.0
 70
  1176
 71
     3
 72
     8
 73
     4
 74
     0
 42
0.000000001
 43
0.0000000001
 40
0.0
 40
0.0
 40
0.0
 40
0.0
 40
1.0
 40
1.0
 40
1.0
 40
1.0
 10
-542.4207528853003
 20
1.620300000000497
 30
0.0
 10
-541.2808195519671
 20
5.873566666667102
 30
0.0
 10
-540.1408862186339
 20
10.1268333333337
 30
0.0
 10
-539.0009528853006
 20
14.38010000000031
 30
0.0
  0
SPLINE
  5
1249E
330
12372
100
AcDbEntity
  8
Zwaluwstaartplaat
370
   106
100
AcDbSpline
210
0.0
220
0.0
230
1.0
 70
  1176
 71
     3
 72
     8
 73
     4
 74
     0
 42
0.000000001
 43
0.0000000001
 40
0.0
 40
0.0
 40
0.0
 40
0.0
 40
1.0
 40
1.0
 40
1.0
 40
1.0
 10
-509.4991528853006
 20
1.620300000000497
 30
0.0
 10
-510.639619551967
 20
5.873566666667102
 30
0.0
 10
-511.7800862186334
 20
10.1268333333337
 30
0.0
 10
-512.9205528852999
 20
14.38010000000031
 30
0.0
  0
SPLINE
  5
1249F
330
12372
100
AcDbEntity
  8
Zwaluwstaartplaat
370
    90
100
AcDbSpline
210
0.0
220
0.0
230
1.0
 70
  1288
 71
     3
 72
    12
 73
     8
 74
     0
 42
0.0000000001
 43
0.0000000001
 40
0.0
 40
0.0
 40
0.0
 40
0.0
 40
0.5
 40
0.5
 40
0.5
 40
0.500000001
 40
1.0
 40
1.0
 40
1.0
 40
1.0
 10
-541.1600528853013
 20
0.0
 30
0.0
 10
-541.8816528853003
 20
0.0
 30
0.0
 10
-542.4600528853006
 20
0.580800000000636
 30
0.0
 10
-542.4600528853006
 20
1.299800000000686
 30
0.0
 10
-542.4600528853006
 20
1.299800000000686
 30
0.0
 10
-542.4600528853006
 20
1.409800000000359
 30
0.0
 10
-542.4503528853001
 20
1.520800000000235
 30
0.0
 10
-542.4207528853003
 20
1.620300000000497
 30
0.0
  0
SPLINE
  5
124A0
330
12372
100
AcDbEntity
  8
Zwaluwstaartplaat
370
    90
100
AcDbSpline
210
0.0
220
0.0
230
1.0
 70
  1288
 71
     3
 72
    12
 73
     8
 74
     0
 42
0.0000000001
 43
0.0000000001
 40
0.0
 40
0.0
 40
0.0
 40
0.0
 40
0.5
 40
0.5
 40
0.5
 40
0.500000001
 40
1.0
 40
1.0
 40
1.0
 40
1.0
 10
-510.7599528853007
 20
0.0
 30
0.0
 10
-510.0409528853015
 20
0.0
 30
0.0
 10
-509.4601528852999
 20
0.580800000000636
 30
0.0
 10
-509.4601528852999
 20
1.299800000000686
 30
0.0
 10
-509.4601528852999
 20
1.299800000000686
 30
0.0
 10
-509.4601528852999
 20
1.409800000000359
 30
0.0
 10
-509.4701528853001
 20
1.520800000000235
 30
0.0
 10
-509.4991528853006
 20
1.620300000000497
 30
0.0
  0
SPLINE
  5
124A1
330
12372
100
AcDbEntity
  8
Zwaluwstaartplaat
370
   106
100
AcDbSpline
210
0.0
220
0.0
230
1.0
 70
  1288
 71
     3
 72
    12
 73
     8
 74
     0
 42
0.0000000001
 43
0.0000000001
 40
0.0
 40
0.0
 40
0.0
 40
0.0
 40
0.5
 40
0.5
 40
0.5
 40
0.500000001
 40
1.0
 40
1.0
 40
1.0
 40
1.0
 10
-540.2604528853007
 20
16.0
 30
0.0
 10
-539.540252885301
 20
16.0
 30
0.0
 10
-538.9600528853007
 20
15.41920000000027
 30
0.0
 10
-538.9600528853007
 20
14.70030000000042
 30
0.0
 10
-538.9600528853007
 20
14.70030000000042
 30
0.0
 10
-538.9600528853007
 20
14.59029999999984
 30
0.0
 10
-538.9701528853001
 20
14.47980000000007
 30
0.0
 10
-539.0009528853006
 20
14.38010000000031
 30
0.0
  0
SPLINE
  5
124A2
330
12372
100
AcDbEntity
  8
Zwaluwstaartplaat
370
   106
100
AcDbSpline
210
0.0
220
0.0
230
1.0
 70
  1288
 71
     3
 72
    12
 73
     8
 74
     0
 42
0.0000000001
 43
0.0000000001
 40
0.0
 40
0.0
 40
0.0
 40
0.0
 40
0.5
 40
0.5
 40
0.5
 40
0.500000001
 40
1.0
 40
1.0
 40
1.0
 40
1.0
 10
-511.6611528853009
 20
16.0
 30
0.0
 10
-512.3801528853
 20
16.0
 30
0.0
 10
-512.9607528853012
 20
15.41920000000027
 30
0.0
 10
-512.9607528853012
 20
14.70030000000042
 30
0.0
 10
-512.9607528853012
 20
14.70030000000042
 30
0.0
 10
-512.9607528853012
 20
14.59029999999984
 30
0.0
 10
-512.9511528852999
 20
14.47980000000007
 30
0.0
 10
-512.9205528852999
 20
14.38010000000031
 30
0.0
  0
SPLINE
  5
124A3
330
12372
100
AcDbEntity
  8
Zwaluwstaartplaat
370
   106
100
AcDbSpline
210
0.0
220
0.0
230
1.0
 70
  1176
 71
     3
 72
     8
 73
     4
 74
     0
 42
0.000000001
 43
0.0000000001
 40
0.0
 40
0.0
 40
0.0
 40
0.0
 40
1.0
 40
1.0
 40
1.0
 40
1.0
 10
-541.1600528853013
 20
0.0
 30
0.0
 10
-531.0229727169317
 20
0.0000666666668015
 30
0.0
 10
-520.8858925485619
 20
0.000133333333603
 30
0.0
 10
-510.7488123801922
 20
0.0002000000004045
 30
0.0
  0
SPLINE
  5
124A4
330
12372
100
AcDbEntity
  8
Zwaluwstaartplaat
370
   106
100
AcDbSpline
210
0.0
220
0.0
230
1.0
 70
    24
 71
     3
 72
     8
 73
     4
 74
     0
 42
0.000000001
 43
0.0000000001
 40
0.2760702166193833
 40
0.2760702166193833
 40
0.2760702166193833
 40
0.2760702166193833
 40
1.0
 40
1.0
 40
1.0
 40
1.0
 10
-629.9600563578624
 20
15.99999999999909
 30
0.0
 10
-621.3934815282136
 20
15.99999999999909
 30
0.0
 10
-612.8269066985649
 20
16.0
 30
0.0
 10
-604.2603318689144
 20
16.0
 30
0.0
  0
SPLINE
  5
124A5
330
12372
100
AcDbEntity
  8
Zwaluwstaartplaat
370
   106
100
AcDbSpline
210
0.0
220
0.0
230
1.0
 70
  1176
 71
     3
 72
     8
 73
     4
 74
     0
 42
0.000000001
 43
0.0000000001
 40
0.0
 40
0.0
 40
0.0
 40
0.0
 40
1.0
 40
1.0
 40
1.0
 40
1.0
 10
-606.4206318689139
 20
1.620300000000497
 30
0.0
 10
-605.2806985355807
 20
5.873566666667102
 30
0.0
 10
-604.1407652022475
 20
10.1268333333337
 30
0.0
 10
-603.0008318689142
 20
14.38010000000031
 30
0.0
  0
SPLINE
  5
124A6
330
12372
100
AcDbEntity
  8
Zwaluwstaartplaat
370
   106
100
AcDbSpline
210
0.0
220
0.0
230
1.0
 70
  1176
 71
     3
 72
     8
 73
     4
 74
     0
 42
0.000000001
 43
0.0000000001
 40
0.0
 40
0.0
 40
0.0
 40
0.0
 40
1.0
 40
1.0
 40
1.0
 40
1.0
 10
-573.4990318689142
 20
1.620300000000497
 30
0.0
 10
-574.6394985355807
 20
5.873566666667102
 30
0.0
 10
-575.7799652022471
 20
10.1268333333337
 30
0.0
 10
-576.9204318689134
 20
14.38010000000031
 30
0.0
  0
SPLINE
  5
124A7
330
12372
100
AcDbEntity
  8
Zwaluwstaartplaat
370
    90
100
AcDbSpline
210
0.0
220
0.0
230
1.0
 70
  1288
 71
     3
 72
    12
 73
     8
 74
     0
 42
0.0000000001
 43
0.0000000001
 40
0.0
 40
0.0
 40
0.0
 40
0.0
 40
0.5
 40
0.5
 40
0.5
 40
0.500000001
 40
1.0
 40
1.0
 40
1.0
 40
1.0
 10
-605.159931868915
 20
0.0
 30
0.0
 10
-605.881531868914
 20
0.0
 30
0.0
 10
-606.4599318689142
 20
0.580800000000636
 30
0.0
 10
-606.4599318689142
 20
1.299800000000686
 30
0.0
 10
-606.4599318689142
 20
1.299800000000686
 30
0.0
 10
-606.4599318689142
 20
1.409800000000359
 30
0.0
 10
-606.4502318689137
 20
1.520800000000235
 30
0.0
 10
-606.4206318689139
 20
1.620300000000497
 30
0.0
  0
SPLINE
  5
124A8
330
12372
100
AcDbEntity
  8
Zwaluwstaartplaat
370
    90
100
AcDbSpline
210
0.0
220
0.0
230
1.0
 70
  1288
 71
     3
 72
    12
 73
     8
 74
     0
 42
0.0000000001
 43
0.0000000001
 40
0.0
 40
0.0
 40
0.0
 40
0.0
 40
0.5
 40
0.5
 40
0.5
 40
0.500000001
 40
1.0
 40
1.0
 40
1.0
 40
1.0
 10
-574.7598318689142
 20
0.0
 30
0.0
 10
-574.0408318689151
 20
0.0
 30
0.0
 10
-573.4600318689135
 20
0.580800000000636
 30
0.0
 10
-573.4600318689135
 20
1.299800000000686
 30
0.0
 10
-573.4600318689135
 20
1.299800000000686
 30
0.0
 10
-573.4600318689135
 20
1.409800000000359
 30
0.0
 10
-573.4700318689138
 20
1.520800000000235
 30
0.0
 10
-573.4990318689142
 20
1.620300000000497
 30
0.0
  0
SPLINE
  5
124A9
330
12372
100
AcDbEntity
  8
Zwaluwstaartplaat
370
   106
100
AcDbSpline
210
0.0
220
0.0
230
1.0
 70
  1288
 71
     3
 72
    12
 73
     8
 74
     0
 42
0.0000000001
 43
0.0000000001
 40
0.0
 40
0.0
 40
0.0
 40
0.0
 40
0.5
 40
0.5
 40
0.5
 40
0.500000001
 40
1.0
 40
1.0
 40
1.0
 40
1.0
 10
-604.2603318689144
 20
16.0
 30
0.0
 10
-603.5401318689146
 20
16.0
 30
0.0
 10
-602.9599318689142
 20
15.41920000000027
 30
0.0
 10
-602.9599318689142
 20
14.70030000000042
 30
0.0
 10
-602.9599318689142
 20
14.70030000000042
 30
0.0
 10
-602.9599318689142
 20
14.59029999999984
 30
0.0
 10
-602.9700318689138
 20
14.47980000000007
 30
0.0
 10
-603.0008318689142
 20
14.38010000000031
 30
0.0
  0
SPLINE
  5
124AA
330
12372
100
AcDbEntity
  8
Zwaluwstaartplaat
370
   106
100
AcDbSpline
210
0.0
220
0.0
230
1.0
 70
  1288
 71
     3
 72
    12
 73
     8
 74
     0
 42
0.0000000001
 43
0.0000000001
 40
0.0
 40
0.0
 40
0.0
 40
0.0
 40
0.5
 40
0.5
 40
0.5
 40
0.500000001
 40
1.0
 40
1.0
 40
1.0
 40
1.0
 10
-575.6610318689145
 20
16.0
 30
0.0
 10
-576.3800318689136
 20
16.0
 30
0.0
 10
-576.9606318689148
 20
15.41920000000027
 30
0.0
 10
-576.9606318689148
 20
14.70030000000042
 30
0.0
 10
-576.9606318689148
 20
14.70030000000042
 30
0.0
 10
-576.9606318689148
 20
14.59029999999984
 30
0.0
 10
-576.9510318689135
 20
14.47980000000007
 30
0.0
 10
-576.9204318689134
 20
14.38010000000031
 30
0.0
  0
SPLINE
  5
124AB
330
12372
100
AcDbEntity
  8
Zwaluwstaartplaat
370
   106
100
AcDbSpline
210
0.0
220
0.0
230
1.0
 70
  1176
 71
     3
 72
     8
 73
     4
 74
     0
 42
0.000000001
 43
0.0000000001
 40
0.0
 40
0.0
 40
0.0
 40
0.0
 40
1.0
 40
1.0
 40
1.0
 40
1.0
 10
-605.159931868915
 20
0.0
 30
0.0
 10
-595.0228517005452
 20
0.0000666666668015
 30
0.0
 10
-584.8857715321755
 20
0.000133333333603
 30
0.0
 10
-574.7486913638058
 20
0.0002000000004045
 30
0.0
  0
ENDBLK
  5
12374
330
12372
100
AcDbEntity
  8
0
100
AcDbBlockEnd
  0
BLOCK
  5
1A4C1
330
1A4BD
100
AcDbEntity
  8
0
100
AcDbBlockBegin
  2
_ClosedBlank
 70
     0
 10
0.0
 20
0.0
 30
0.0
  3
_ClosedBlank
  1

  0
LINE
  5
1A4BE
330
1A4BD
100
AcDbEntity
  8
0
  6
ByBlock
 62
     0
370
    -2
100
AcDbLine
 10
-1.0
 20
0.1666666666666666
 30
0.0
 11
0.0
 21
0.0
 31
0.0
  0
LINE
  5
1A4BF
330
1A4BD
100
AcDbEntity
  8
0
  6
ByBlock
 62
     0
370
    -2
100
AcDbLine
 10
0.0
 20
0.0
 30
0.0
 11
-1.0
 21
-0.1666666666666666
 31
0.0
  0
LINE
  5
1A4C0
330
1A4BD
100
AcDbEntity
  8
0
  6
ByBlock
 62
     0
370
    -2
100
AcDbLine
 10
-1.0
 20
0.1666666666666666
 30
0.0
 11
-1.0
 21
-0.1666666666666666
 31
0.0
  0
ENDBLK
  5
1A4C2
330
1A4BD
100
AcDbEntity
  8
0
100
AcDbBlockEnd
  0
BLOCK
  5
1D89D
330
1D89C
100
AcDbEntity
  8
0
100
AcDbBlockBegin
  2
*D6
 70
     1
 10
0.0
 20
0.0
 30
0.0
  3
*D6
  1

  0
LINE
  5
23FB8
330
1D89C
100
AcDbEntity
  8
Maatvoering
 62
     0
440
 16777216
370
    -2
100
AcDbLine
 10
14793.1390886764
 20
7721.226241773362
 30
0.0
 11
14793.1390886764
 21
7750.491945697311
 31
0.0
  0
LINE
  5
23FB9
330
1D89C
100
AcDbEntity
  8
Maatvoering
 62
     0
440
 16777216
370
    -2
100
AcDbLine
 10
14755.13920969279
 20
7721.22007201426
 30
0.0
 11
14755.13920969279
 21
7750.491945697311
 31
0.0
  0
LINE
  5
23FBA
330
1D89C
100
AcDbEntity
  8
Maatvoering
 62
     0
440
 16777216
370
    -2
100
AcDbLine
 10
14793.1390886764
 20
7735.491945697311
 30
0.0
 11
14803.1390886764
 21
7735.491945697311
 31
0.0
  0
LINE
  5
23FBB
330
1D89C
100
AcDbEntity
  8
Maatvoering
 62
     0
440
 16777216
370
    -2
100
AcDbLine
 10
14755.13920969279
 20
7735.491945697311
 30
0.0
 11
14745.13920969279
 21
7735.491945697311
 31
0.0
  0
INSERT
  5
23FBC
330
1D89C
100
AcDbEntity
  8
Maatvoering
 62
     0
440
 16777216
370
    -2
100
AcDbBlockReference
  2
_Oblique
 10
14793.1390886764
 20
7735.491945697311
 30
0.0
 41
10.0
 42
10.0
 43
10.0
 50
180.0
  0
INSERT
  5
23FBD
330
1D89C
100
AcDbEntity
  8
Maatvoering
 62
     0
440
 16777216
370
    -2
100
AcDbBlockReference
  2
_Oblique
 10
14755.13920969279
 20
7735.491945697311
 30
0.0
 41
10.0
 42
10.0
 43
10.0
  0
MTEXT
  5
23FBE
330
1D89C
100
AcDbEntity
  8
Maatvoering
 62
     0
440
 16777216
100
AcDbMText
 10
14774.1391491846
 20
7735.491945697311
 30
0.0
 40
15.0
 41
0.0
 46
0.0
 71
     5
 72
     1
  1
\A1;38
 73
     1
 44
1.0
  0
POINT
  5
23FBF
330
1D89C
100
AcDbEntity
  8
Defpoints
 62
     0
440
 16777216
100
AcDbPoint
 10
14793.1390886764
 20
7696.226241773363
 30
0.0
  0
POINT
  5
23FC0
330
1D89C
100
AcDbEntity
  8
Defpoints
 62
     0
440
 16777216
100
AcDbPoint
 10
14755.13920969279
 20
7696.22007201426
 30
0.0
  0
POINT
  5
23FC1
330
1D89C
100
AcDbEntity
  8
Defpoints
 62
     0
440
 16777216
100
AcDbPoint
 10
14755.13920969279
 20
7735.491945697311
 30
0.0
  0
ENDBLK
  5
1D89E
330
1D89C
100
AcDbEntity
  8
0
100
AcDbBlockEnd
  0
BLOCK
  5
1D8DC
330
1D8DB
100
AcDbEntity
  8
0
100
AcDbBlockBegin
  2
*D7
 70
     1
 10
0.0
 20
0.0
 30
0.0
  3
*D7
  1

  0
LINE
  5
23FC2
330
1D8DB
100
AcDbEntity
  8
Maatvoering
 62
     0
440
 16777216
370
    -2
100
AcDbLine
 10
14822.60121365151
 20
7654.979429090872
 30
0.0
 11
14822.60121365151
 21
7632.956628931522
 31
0.0
  0
LINE
  5
23FC3
330
1D8DB
100
AcDbEntity
  8
Maatvoering
 62
     0
440
 16777216
370
    -2
100
AcDbLine
 10
14789.64031365151
 20
7654.913900598488
 30
0.0
 11
14789.64031365151
 21
7632.956628931522
 31
0.0
  0
LINE
  5
23FC4
330
1D8DB
100
AcDbEntity
  8
Maatvoering
 62
     0
440
 16777216
370
    -2
100
AcDbLine
 10
14822.60121365151
 20
7647.956628931523
 30
0.0
 11
14832.60121365151
 21
7647.956628931523
 31
0.0
  0
LINE
  5
23FC5
330
1D8DB
100
AcDbEntity
  8
Maatvoering
 62
     0
440
 16777216
370
    -2
100
AcDbLine
 10
14789.64031365151
 20
7647.956628931523
 30
0.0
 11
14779.6403136515
 21
7647.956628931523
 31
0.0
  0
INSERT
  5
23FC6
330
1D8DB
100
AcDbEntity
  8
Maatvoering
 62
     0
440
 16777216
370
    -2
100
AcDbBlockReference
  2
_Oblique
 10
14822.60121365151
 20
7647.956628931523
 30
0.0
 41
10.0
 42
10.0
 43
10.0
 50
180.0
  0
INSERT
  5
23FC7
330
1D8DB
100
AcDbEntity
  8
Maatvoering
 62
     0
440
 16777216
370
    -2
100
AcDbBlockReference
  2
_Oblique
 10
14789.64031365151
 20
7647.956628931523
 30
0.0
 41
10.0
 42
10.0
 43
10.0
  0
MTEXT
  5
23FC8
330
1D8DB
100
AcDbEntity
  8
Maatvoering
 62
     0
440
 16777216
100
AcDbMText
 10
14806.12076365151
 20
7647.956628931523
 30
0.0
 40
15.0
 41
0.0
 46
0.0
 71
     5
 72
     1
  1
\A1;33
 73
     1
 44
1.0
  0
POINT
  5
23FC9
330
1D8DB
100
AcDbEntity
  8
Defpoints
 62
     0
440
 16777216
100
AcDbPoint
 10
14822.60121365151
 20
7679.979429090872
 30
0.0
  0
POINT
  5
23FCA
330
1D8DB
100
AcDbEntity
  8
Defpoints
 62
     0
440
 16777216
100
AcDbPoint
 10
14789.64031365151
 20
7679.913900598489
 30
0.0
  0
POINT
  5
23FCB
330
1D8DB
100
AcDbEntity
  8
Defpoints
 62
     0
440
 16777216
100
AcDbPoint
 10
14789.64031365151
 20
7647.956628931523
 30
0.0
  0
ENDBLK
  5
1D8DD
330
1D8DB
100
AcDbEntity
  8
0
100
AcDbBlockEnd
  0
BLOCK
  5
1D902
330
1D901
100
AcDbEntity
  8
0
100
AcDbBlockBegin
  2
*D8
 70
     1
 10
0.0
 20
0.0
 30
0.0
  3
*D8
  1

  0
LINE
  5
23FCC
330
1D901
100
AcDbEntity
  8
Maatvoering
 62
     0
440
 16777216
370
    -2
100
AcDbLine
 10
14844.1715091212
 20
7696.961749162698
 30
0.0
 11
14839.24361269836
 21
7696.961749162698
 31
0.0
  0
LINE
  5
23FCD
330
1D901
100
AcDbEntity
  8
Maatvoering
 62
     0
440
 16777216
370
    -2
100
AcDbLine
 10
14844.31231611862
 20
7696.48013516785
 30
0.0
 11
14839.24361269836
 21
7696.48013516785
 31
0.0
  0
LINE
  5
23FCE
330
1D901
100
AcDbEntity
  8
Maatvoering
 62
     0
440
 16777216
370
    -2
100
AcDbLine
 10
14839.24361269836
 20
7696.48013516785
 30
0.0
 11
14839.24361269836
 21
7686.480135167849
 31
0.0
  0
LINE
  5
23FCF
330
1D901
100
AcDbEntity
  8
Maatvoering
 62
     0
440
 16777216
370
    -2
100
AcDbLine
 10
14839.24361269836
 20
7696.961749162698
 30
0.0
 11
14839.24361269836
 21
7735.009128444961
 31
0.0
  0
LINE
  5
23FD0
330
1D901
100
AcDbEntity
  8
Maatvoering
 62
     0
440
 16777216
370
    -2
100
AcDbLine
 10
14839.24361269836
 20
7735.009128444961
 30
0.0
 11
14849.24361269836
 21
7735.009128444961
 31
0.0
  0
INSERT
  5
23FD1
330
1D901
100
AcDbEntity
  8
Maatvoering
 62
     0
440
 16777216
370
    -2
100
AcDbBlockReference
  2
_Oblique
 10
14839.24361269836
 20
7696.48013516785
 30
0.0
 41
10.0
 42
10.0
 43
10.0
 50
90.0
  0
INSERT
  5
23FD2
330
1D901
100
AcDbEntity
  8
Maatvoering
 62
     0
440
 16777216
370
    -2
100
AcDbBlockReference
  2
_Oblique
 10
14839.24361269836
 20
7696.961749162698
 30
0.0
 41
10.0
 42
10.0
 43
10.0
 50
270.0
  0
MTEXT
  5
23FD3
330
1D901
100
AcDbEntity
  8
Maatvoering
 62
     0
440
 16777216
100
AcDbMText
 10
14882.95439032455
 20
7735.009128444963
 30
0.0
 40
15.0
 41
0.0
 46
0.0
 71
     5
 72
     1
  1
\A1;0,5
 73
     1
 44
1.0
  0
POINT
  5
23FD4
330
1D901
100
AcDbEntity
  8
Defpoints
 62
     0
440
 16777216
100
AcDbPoint
 10
14844.1715091212
 20
7696.961749162698
 30
0.0
  0
POINT
  5
23FD5
330
1D901
100
AcDbEntity
  8
Defpoints
 62
     0
440
 16777216
100
AcDbPoint
 10
14844.31231611862
 20
7696.48013516785
 30
0.0
  0
POINT
  5
23FD6
330
1D901
100
AcDbEntity
  8
Defpoints
 62
     0
440
 16777216
100
AcDbPoint
 10
14839.24361269836
 20
7696.48013516785
 30
0.0
  0
ENDBLK
  5
1D903
330
1D901
100
AcDbEntity
  8
0
100
AcDbBlockEnd
  0
BLOCK
  5
1F82C
330
1F82B
100
AcDbEntity
  8
0
100
AcDbBlockBegin
  2
*D9
 70
     1
 10
0.0
 20
0.0
 30
0.0
  3
*D9
  1

  0
LINE
  5
23FD7
330
1F82B
100
AcDbEntity
  8
Maatvoering
 62
     0
440
 16777216
370
    -2
100
AcDbLine
 10
14042.40074179076
 20
8087.356179052813
 30
0.0
 11
14042.40074179076
 21
8047.356179052817
 31
0.0
  0
LINE
  5
23FD8
330
1F82B
100
AcDbEntity
  8
Maatvoering
 62
     0
440
 16777216
370
    -2
100
AcDbLine
 10
15342.40074179075
 20
8087.356179052815
 30
0.0
 11
15342.40074179075
 21
8047.356179052817
 31
0.0
  0
LINE
  5
23FD9
330
1F82B
100
AcDbEntity
  8
Maatvoering
 62
     0
440
 16777216
370
    -2
100
AcDbLine
 10
14032.40074179076
 20
8062.356179052818
 30
0.0
 11
14569.01699481234
 21
8062.356179052818
 31
0.0
  0
LINE
  5
23FDA
330
1F82B
100
AcDbEntity
  8
Maatvoering
 62
     0
440
 16777216
370
    -2
100
AcDbLine
 10
15352.40074179075
 20
8062.356179052818
 30
0.0
 11
14964.28302482599
 21
8062.356179052818
 31
0.0
  0
INSERT
  5
23FDB
330
1F82B
100
AcDbEntity
  8
Maatvoering
 62
     0
440
 16777216
370
    -2
100
AcDbBlockReference
  2
_Oblique
 10
14042.40074179076
 20
8062.356179052818
 30
0.0
 41
10.0
 42
10.0
 43
10.0
 50
180.0
  0
INSERT
  5
23FDC
330
1F82B
100
AcDbEntity
  8
Maatvoering
 62
     0
440
 16777216
370
    -2
100
AcDbBlockReference
  2
_Oblique
 10
15342.40074179075
 20
8062.356179052818
 30
0.0
 41
10.0
 42
10.0
 43
10.0
  0
MTEXT
  5
23FDD
330
1F82B
100
AcDbEntity
  8
Maatvoering
 62
     0
440
 16777216
100
AcDbMText
 10
14766.65000981916
 20
8062.356179052818
 30
0.0
 40
15.0
 41
0.0
 46
0.0
 71
     5
 72
     1
  1
\A1;Standaard: 1300 / 1600 / 1900 / 2200
 73
     1
 44
1.0
  0
POINT
  5
23FDE
330
1F82B
100
AcDbEntity
  8
Defpoints
 62
     0
440
 16777216
100
AcDbPoint
 10
14042.40074179076
 20
8112.356179052813
 30
0.0
  0
POINT
  5
23FDF
330
1F82B
100
AcDbEntity
  8
Defpoints
 62
     0
440
 16777216
100
AcDbPoint
 10
15342.40074179075
 20
8112.356179052815
 30
0.0
  0
POINT
  5
23FE0
330
1F82B
100
AcDbEntity
  8
Defpoints
 62
     0
440
 16777216
100
AcDbPoint
 10
15342.40074179075
 20
8062.356179052818
 30
0.0
  0
ENDBLK
  5
1F82D
330
1F82B
100
AcDbEntity
  8
0
100
AcDbBlockEnd
  0
BLOCK
  5
1F839
330
1F838
100
AcDbEntity
  8
0
100
AcDbBlockBegin
  2
*D10
 70
     1
 10
0.0
 20
0.0
 30
0.0
  3
*D10
  1

  0
LINE
  5
23FE1
330
1F838
100
AcDbEntity
  8
Maatvoering
 62
     0
440
 16777216
370
    -2
100
AcDbLine
 10
14042.40074179076
 20
8047.356179052814
 30
0.0
 11
14042.40074179076
 21
8010.367910650732
 31
0.0
  0
LINE
  5
23FE2
330
1F838
100
AcDbEntity
  8
Maatvoering
 62
     0
440
 16777216
370
    -2
100
AcDbLine
 10
15342.40074179075
 20
8047.356179052815
 30
0.0
 11
15342.40074179075
 21
8010.367910650732
 31
0.0
  0
LINE
  5
23FE3
330
1F838
100
AcDbEntity
  8
Maatvoering
 62
     0
440
 16777216
370
    -2
100
AcDbLine
 10
14032.40074179076
 20
8025.367910650732
 30
0.0
 11
14576.4201824456
 21
8025.367910650732
 31
0.0
  0
LINE
  5
23FE4
330
1F838
100
AcDbEntity
  8
Maatvoering
 62
     0
440
 16777216
370
    -2
100
AcDbLine
 10
15352.40074179075
 20
8025.367910650732
 30
0.0
 11
14808.38130113591
 21
8025.367910650732
 31
0.0
  0
INSERT
  5
23FE5
330
1F838
100
AcDbEntity
  8
Maatvoering
 62
     0
440
 16777216
370
    -2
100
AcDbBlockReference
  2
_Oblique
 10
14042.40074179076
 20
8025.367910650732
 30
0.0
 41
10.0
 42
10.0
 43
10.0
 50
180.0
  0
INSERT
  5
23FE6
330
1F838
100
AcDbEntity
  8
Maatvoering
 62
     0
440
 16777216
370
    -2
100
AcDbBlockReference
  2
_Oblique
 10
15342.40074179075
 20
8025.367910650732
 30
0.0
 41
10.0
 42
10.0
 43
10.0
  0
MTEXT
  5
23FE7
330
1F838
100
AcDbEntity
  8
Maatvoering
 62
     0
440
 16777216
100
AcDbMText
 10
14692.40074179075
 20
8025.367910650732
 30
0.0
 40
15.0
 41
0.0
 46
0.0
 71
     5
 72
     1
  1
\A1;Maatwerk: vanaf 500
 73
     1
 44
1.0
  0
POINT
  5
23FE8
330
1F838
100
AcDbEntity
  8
Defpoints
 62
     0
440
 16777216
100
AcDbPoint
 10
14042.40074179076
 20
8072.356179052814
 30
0.0
  0
POINT
  5
23FE9
330
1F838
100
AcDbEntity
  8
Defpoints
 62
     0
440
 16777216
100
AcDbPoint
 10
15342.40074179075
 20
8072.356179052816
 30
0.0
  0
POINT
  5
23FEA
330
1F838
100
AcDbEntity
  8
Defpoints
 62
     0
440
 16777216
100
AcDbPoint
 10
15342.40074179075
 20
8025.367910650732
 30
0.0
  0
ENDBLK
  5
1F83A
330
1F838
100
AcDbEntity
  8
0
100
AcDbBlockEnd
  0
BLOCK
  5
1F92B
330
1F92A
100
AcDbEntity
  8
0
100
AcDbBlockBegin
  2
*D11
 70
     1
 10
0.0
 20
0.0
 30
0.0
  3
*D11
  1

  0
LINE
  5
23FEB
330
1F92A
100
AcDbEntity
  8
Maatvoering
 62
     0
440
 16777216
370
    -2
100
AcDbLine
 10
15367.40074179076
 20
8742.356303541763
 30
0.0
 11
15440.52309788105
 21
8742.356303541763
 31
0.0
  0
LINE
  5
23FEC
330
1F92A
100
AcDbEntity
  8
Maatvoering
 62
     0
440
 16777216
370
    -2
100
AcDbLine
 10
15367.40074179075
 20
8112.356179052815
 30
0.0
 11
15440.52309788105
 21
8112.356179052815
 31
0.0
  0
LINE
  5
23FED
330
1F92A
100
AcDbEntity
  8
Maatvoering
 62
     0
440
 16777216
370
    -2
100
AcDbLine
 10
15425.52309788105
 20
8752.356303541763
 30
0.0
 11
15425.52309788105
 21
8460.019952074915
 31
0.0
  0
LINE
  5
23FEE
330
1F92A
100
AcDbEntity
  8
Maatvoering
 62
     0
440
 16777216
370
    -2
100
AcDbLine
 10
15425.52309788105
 20
8102.356179052815
 30
0.0
 11
15425.52309788105
 21
8394.692530519664
 31
0.0
  0
INSERT
  5
23FEF
330
1F92A
100
AcDbEntity
  8
Maatvoering
 62
     0
440
 16777216
370
    -2
100
AcDbBlockReference
  2
_Oblique
 10
15425.52309788105
 20
8742.356303541763
 30
0.0
 41
10.0
 42
10.0
 43
10.0
 50
90.0
  0
INSERT
  5
23FF0
330
1F92A
100
AcDbEntity
  8
Maatvoering
 62
     0
440
 16777216
370
    -2
100
AcDbBlockReference
  2
_Oblique
 10
15425.52309788105
 20
8112.356179052815
 30
0.0
 41
10.0
 42
10.0
 43
10.0
 50
270.0
  0
MTEXT
  5
23FF1
330
1F92A
100
AcDbEntity
  8
Maatvoering
 62
     0
440
 16777216
100
AcDbMText
 10
15425.52309788105
 20
8427.356241297292
 30
0.0
 40
15.0
 41
0.0
 46
0.0
 71
     5
 72
     1
  1
\A1;630
 73
     1
 44
1.0
  0
POINT
  5
23FF2
330
1F92A
100
AcDbEntity
  8
Defpoints
 62
     0
440
 16777216
100
AcDbPoint
 10
15342.40074179075
 20
8742.356303541763
 30
0.0
  0
POINT
  5
23FF3
330
1F92A
100
AcDbEntity
  8
Defpoints
 62
     0
440
 16777216
100
AcDbPoint
 10
15342.40074179075
 20
8112.356179052815
 30
0.0
  0
POINT
  5
23FF4
330
1F92A
100
AcDbEntity
  8
Defpoints
 62
     0
440
 16777216
100
AcDbPoint
 10
15425.52309788105
 20
8112.356179052815
 30
0.0
  0
ENDBLK
  5
1F92C
330
1F92A
100
AcDbEntity
  8
0
100
AcDbBlockEnd
  0
BLOCK
  5
23D9D
330
23D9C
100
AcDbEntity
  8
0
100
AcDbBlockBegin
  2
Copyright
 70
     0
 10
0.0
 20
0.0
 30
0.0
  3
Copyright
  1

  0
MTEXT
  5
23D9E
102
{ACAD_XDICTIONARY
360
23D9F
102
}
330
23D9C
100
AcDbEntity
  8
Hulplijnen
100
AcDbMText
 10
-37.22126011953879
 20
18.79323769363691
 30
0.0
 40
25.0
 41
1371.12400958262
 46
0.0
 71
     1
 72
     1
  1
\pt150,200;COPYRIGHT: Gehele of gedeeltelijke overname, verveelvoudiging op welke wijze dan ook en/of commercieel gebruik van deze informatie is niet toegestaan, tenzij hiervoor uitdrukkelijk schriftelijke toestemming is verleend door DUOFOR B.V.
 73
     1
 44
1.3
1001
ACAD
1000
ACAD_MTEXT_COLUMN_INFO_BEGIN
1070
    75
1070
     2
1070
    79
1070
     0
1070
    76
1070
     1
1070
    78
1070
     0
1070
    48
1040
1371.12400958262
1070
    49
1040
0.0
1070
    50
1070
     1
1040
323.5838010130781
1000
ACAD_MTEXT_COLUMN_INFO_END
  0
ENDBLK
  5
23DA0
330
23D9C
100
AcDbEntity
  8
0
100
AcDbBlockEnd
  0
ENDSEC
  0
SECTION
  2
ENTITIES
  0
DIMENSION
  5
117E7
102
{ACAD_XDICTIONARY
360
117E8
102
}
330
1F
100
AcDbEntity
  8
Maatvoering
100
AcDbDimension
280
     0
  2
*D1
 10
14884.10011316535
 20
7599.966055017033
 30
0.0
 11
14561.65091660421
 21
7599.966055017033
 31
0.0
 70
   160
 71
     5
 42
629.9600563578642
 73
     0
 74
     0
 75
     0
  3
Maatvoering 2 detail 1-5
100
AcDbAlignedDimension
 13
14254.14005680749
 23
7696.691247519353
 33
0.0
 14
14884.10011316535
 24
7680.727031840163
 34
0.0
100
AcDbRotatedDimension
1001
AcadAnnotative
1000
AnnotativeData
1002
{
1070
     1
1070
     1
1002
}
  0
DIMENSION
  5
11864
102
{ACAD_XDICTIONARY
360
11865
102
}
330
1F
100
AcDbEntity
  8
Maatvoering
100
AcDbDimension
280
     0
  2
*D2
 10
14884.10011316535
 20
7630.727134687145
 30
0.0
 11
14579.1201472309
 21
7630.727134687145
 31
0.0
 70
    32
  1
Werkende breedte <>
 71
     5
 42
609.9599318689143
 73
     0
 74
     0
 75
     0
  3
Maatvoering 2 detail 1-5
100
AcDbAlignedDimension
 13
14274.14018129644
 23
7696.727031840163
 33
0.0
 14
14884.10011316535
 24
7680.691247519354
 34
0.0
100
AcDbRotatedDimension
1001
AcadAnnotative
1000
AnnotativeData
1002
{
1070
     1
1070
     1
1002
}
  0
DIMENSION
  5
11A27
102
{ACAD_XDICTIONARY
360
11A28
102
}
330
1F
100
AcDbEntity
  8
Maatvoering
100
AcDbDimension
280
     0
  2
*D3
 10
14919.52934839683
 20
7696.727031840163
 30
0.0
 11
14946.54975457228
 21
7688.727131840166
 31
0.0
 70
   160
 71
     5
 42
15.99999999999909
 73
     0
 74
     0
 75
     0
  3
Maatvoering 2 detail 1-5
100
AcDbAlignedDimension
 13
14884.10011316535
 23
7680.727031840163
 33
0.0
 14
14880.83881316535
 24
7696.727031840163
 34
0.0
 50
90.0
100
AcDbRotatedDimension
1001
AcadAnnotative
1000
AnnotativeData
1002
{
1070
     1
1070
     1
1002
}
  0
INSERT
  5
124AC
330
1F
100
AcDbEntity
  8
Maatvoering
100
AcDbBlockReference
  2
Zwaluwstaartplaat drsn
 10
14884.10011316535
 20
7680.727031840163
 30
0.0
  0
DIMENSION
  5
1D897
102
{ACAD_XDICTIONARY
360
1D898
102
}
330
1F
100
AcDbEntity
  8
Maatvoering
100
AcDbDimension
280
     0
  2
*D6
 10
14755.13920969279
 20
7735.491945697311
 30
0.0
 11
14774.1391491846
 21
7735.491945697311
 31
0.0
 70
   160
 71
     5
 42
37.9998789836136
 73
     0
 74
     0
 75
     0
  3
Maatvoering 2 detail 1-5
100
AcDbAlignedDimension
 13
14793.1390886764
 23
7696.226241773363
 33
0.0
 14
14755.13920969279
 24
7696.22007201426
 34
0.0
100
AcDbRotatedDimension
1001
AcadAnnotative
1000
AnnotativeData
1002
{
1070
     1
1070
     1
1002
}
  0
DIMENSION
  5
1D8D6
102
{ACAD_XDICTIONARY
360
1D8D7
102
}
330
1F
100
AcDbEntity
  8
Maatvoering
100
AcDbDimension
280
     0
  2
*D7
 10
14789.64031365151
 20
7647.956628931523
 30
0.0
 11
14806.12076365151
 21
7647.956628931523
 31
0.0
 70
   160
 71
     5
 42
32.96090000000186
 73
     0
 74
     0
 75
     0
  3
Maatvoering 2 detail 1-5
100
AcDbAlignedDimension
 13
14822.60121365151
 23
7679.979429090872
 33
0.0
 14
14789.64031365151
 24
7679.913900598489
 34
0.0
100
AcDbRotatedDimension
1001
AcadAnnotative
1000
AnnotativeData
1002
{
1070
     1
1070
     1
1002
}
  0
DIMENSION
  5
1D8FC
102
{ACAD_XDICTIONARY
360
1D8FD
102
}
330
1F
100
AcDbEntity
  8
Maatvoering
100
AcDbDimension
280
     0
  2
*D8
 10
14839.24361269836
 20
7696.48013516785
 30
0.0
 11
14882.95439032455
 21
7735.009128444963
 31
0.0
 70
   160
 71
     5
 42
0.4816139948479759
 73
     0
 74
     0
 75
     0
  3
Maatvoering 2 detail 1-5
100
AcDbAlignedDimension
 13
14844.1715091212
 23
7696.961749162698
 33
0.0
 14
14844.31231611862
 24
7696.48013516785
 34
0.0
 50
270.0
100
AcDbRotatedDimension
1001
AcadAnnotative
1000
AnnotativeData
1002
{
1070
     1
1070
     1
1002
}
1001
ACAD
1000
DSTYLE
1002
{
1070
    44
1040
0.0
1070
    42
1040
0.0
1070
   271
1070
     1
1002
}
  0
LINE
  5
1F808
330
1F
100
AcDbEntity
  8
Aanzichtlijnen
100
AcDbLine
 10
15342.40074179075
 20
8741.356303541762
 30
0.0
 11
14494.6406745532
 21
8741.356303541762
 31
0.0
  0
LINE
  5
1F809
330
1F
100
AcDbEntity
  8
Aanzichtlijnen
 62
     8
100
AcDbLine
 10
15342.40074179075
 20
8714.356179052815
 30
0.0
 11
14477.52427698388
 21
8714.356179052817
 31
0.0
  0
LINE
  5
1F80A
330
1F
100
AcDbEntity
  8
Aanzichtlijnen
 62
     8
100
AcDbLine
 10
15342.40074179075
 20
8688.356179052815
 30
0.0
 11
14461.04189606062
 21
8688.356179052815
 31
0.0
  0
LINE
  5
1F80B
330
1F
100
AcDbEntity
  8
Aanzichtlijnen
 62
     8
100
AcDbLine
 10
15342.40074179075
 20
8650.356179052815
 30
0.0
 11
14436.95226240355
 21
8650.356179052815
 31
0.0
  0
LINE
  5
1F80C
330
1F
100
AcDbEntity
  8
Aanzichtlijnen
 62
     8
100
AcDbLine
 10
15342.40074179075
 20
8624.356179052815
 30
0.0
 11
14420.46988148029
 21
8624.356179052815
 31
0.0
  0
LINE
  5
1F80D
330
1F
100
AcDbEntity
  8
Aanzichtlijnen
100
AcDbLine
 10
14042.40074179076
 20
8741.356303541762
 30
0.0
 11
14042.40074179076
 21
8112.356179052813
 31
0.0
  0
LINE
  5
1F80E
330
1F
100
AcDbEntity
  8
Aanzichtlijnen
100
AcDbLine
 10
15342.40074179075
 20
8741.356303541762
 30
0.0
 11
15342.40074179075
 21
8112.356179052813
 31
0.0
  0
LINE
  5
1F80F
330
1F
100
AcDbEntity
  8
Aanzichtlijnen
 62
     8
100
AcDbLine
 10
15342.40074179075
 20
8586.356179052815
 30
0.0
 11
14042.40074179076
 21
8586.356179052815
 31
0.0
  0
LINE
  5
1F810
330
1F
100
AcDbEntity
  8
Aanzichtlijnen
 62
     8
100
AcDbLine
 10
15342.40074179075
 20
8560.356179052815
 30
0.0
 11
14042.40074179076
 21
8560.356179052815
 31
0.0
  0
LINE
  5
1F811
330
1F
100
AcDbEntity
  8
Aanzichtlijnen
 62
     8
100
AcDbLine
 10
15342.40074179075
 20
8522.356179052815
 30
0.0
 11
14355.80823324289
 21
8522.356179052815
 31
0.0
  0
LINE
  5
1F812
330
1F
100
AcDbEntity
  8
Aanzichtlijnen
 62
     8
100
AcDbLine
 10
15342.40074179075
 20
8496.356179052815
 30
0.0
 11
14339.32585231963
 21
8496.356179052815
 31
0.0
  0
LINE
  5
1F813
330
1F
100
AcDbEntity
  8
Aanzichtlijnen
 62
     8
100
AcDbLine
 10
15342.40074179075
 20
8458.356179052815
 30
0.0
 11
14315.23621866256
 21
8458.356179052815
 31
0.0
  0
LINE
  5
1F814
330
1F
100
AcDbEntity
  8
Aanzichtlijnen
 62
     8
100
AcDbLine
 10
15342.40074179075
 20
8432.356179052815
 30
0.0
 11
14298.7538377393
 21
8432.356179052815
 31
0.0
  0
LINE
  5
1F815
330
1F
100
AcDbEntity
  8
Aanzichtlijnen
 62
     8
100
AcDbLine
 10
15342.40074179075
 20
8394.356179052815
 30
0.0
 11
14274.66420408223
 21
8394.356179052815
 31
0.0
  0
LINE
  5
1F816
330
1F
100
AcDbEntity
  8
Aanzichtlijnen
 62
     8
100
AcDbLine
 10
15342.40074179075
 20
8368.356179052815
 30
0.0
 11
14258.18182315897
 21
8368.356179052815
 31
0.0
  0
LINE
  5
1F817
330
1F
100
AcDbEntity
  8
Aanzichtlijnen
 62
     8
100
AcDbLine
 10
15342.40074179075
 20
8330.356179052815
 30
0.0
 11
14234.0921895019
 21
8330.356179052815
 31
0.0
  0
LINE
  5
1F818
330
1F
100
AcDbEntity
  8
Aanzichtlijnen
 62
     8
100
AcDbLine
 10
15342.40074179075
 20
8304.356179052815
 30
0.0
 11
14217.60980857864
 21
8304.356179052815
 31
0.0
  0
LINE
  5
1F819
330
1F
100
AcDbEntity
  8
Aanzichtlijnen
 62
     8
100
AcDbLine
 10
15342.40074179075
 20
8266.356179052815
 30
0.0
 11
14193.52017492157
 21
8266.356179052817
 31
0.0
  0
LINE
  5
1F81A
330
1F
100
AcDbEntity
  8
Aanzichtlijnen
 62
     8
100
AcDbLine
 10
15342.40074179075
 20
8240.356179052815
 30
0.0
 11
14177.03779399831
 21
8240.356179052815
 31
0.0
  0
LINE
  5
1F81B
330
1F
100
AcDbEntity
  8
Aanzichtlijnen
 62
     8
100
AcDbLine
 10
15342.40074179075
 20
8202.356179052815
 30
0.0
 11
14152.94816034124
 21
8202.356179052816
 31
0.0
  0
LINE
  5
1F81C
330
1F
100
AcDbEntity
  8
Aanzichtlijnen
 62
     8
100
AcDbLine
 10
15342.40074179075
 20
8176.356179052815
 30
0.0
 11
14136.46577941798
 21
8176.356179052815
 31
0.0
  0
LINE
  5
1F81D
330
1F
100
AcDbEntity
  8
Aanzichtlijnen
 62
     8
100
AcDbLine
 10
15342.40074179075
 20
8138.356179052815
 30
0.0
 11
14112.37614576091
 21
8138.356179052815
 31
0.0
  0
LINE
  5
1F81E
102
{ACAD_REACTORS
330
1F937
102
}
330
1F
100
AcDbEntity
  8
Aanzichtlijnen
100
AcDbLine
 10
15342.40074179075
 20
8112.356179052815
 30
0.0
 11
14095.89376483765
 21
8112.356179052815
 31
0.0
  0
DIMENSION
  5
1F81F
102
{ACAD_XDICTIONARY
360
1F820
102
}
330
1F
100
AcDbEntity
  8
Maatvoering
100
AcDbDimension
280
     0
  2
*D9
 10
15342.40074179075
 20
8062.356179052818
 30
0.0
 11
14766.65000981916
 21
8062.356179052818
 31
0.0
 70
   160
  1
Standaard: 1300 / 1600 / 1900 / 2200
 71
     5
 42
1299.999999999996
 73
     0
 74
     0
 75
     0
  3
Maatvoering 2 detail 1-5
100
AcDbAlignedDimension
 13
14042.40074179076
 23
8112.356179052813
 33
0.0
 14
15342.40074179075
 24
8112.356179052815
 34
0.0
100
AcDbRotatedDimension
1001
AcadAnnotative
1000
AnnotativeData
1002
{
1070
     1
1070
     1
1002
}
1001
ACAD
1000
DSTYLE
1002
{
1070
   147
1040
25.0
1002
}
  0
DIMENSION
  5
1F824
102
{ACAD_XDICTIONARY
360
1F825
102
}
330
1F
100
AcDbEntity
  8
Maatvoering
100
AcDbDimension
280
     0
  2
*D10
 10
15342.40074179075
 20
8025.367910650732
 30
0.0
 11
14692.40074179075
 21
8025.367910650732
 31
0.0
 70
    32
  1
Maatwerk: vanaf 500
 71
     5
 42
1299.999999999998
 73
     0
 74
     0
 75
     0
  3
Maatvoering 2 detail 1-5
100
AcDbAlignedDimension
 13
14042.40074179076
 23
8072.356179052814
 33
0.0
 14
15342.40074179075
 24
8072.356179052816
 34
0.0
100
AcDbRotatedDimension
1001
AcadAnnotative
1000
AnnotativeData
1002
{
1070
     1
1070
     1
1002
}
1001
ACAD
1000
DSTYLE
1002
{
1070
    46
1040
10.0
1002
}
  0
LINE
  5
1F829
330
1F
100
AcDbEntity
  8
Breeklijn
 48
2.0
100
AcDbLine
 10
14519.50637110124
 20
8780.580497743995
 30
0.0
 11
14077.46777249626
 21
8083.29024476172
 31
0.0
  0
LINE
  5
1F82A
330
1F
100
AcDbEntity
  8
Breeklijn
 48
2.0
100
AcDbLine
 10
14503.29132405306
 20
8774.688067704676
 30
0.0
 11
14061.25272544809
 21
8077.397814722401
 31
0.0
  0
LINE
  5
1F88B
330
1F
100
AcDbEntity
  8
Aanzichtlijnen
100
AcDbLine
 10
14482.16106121547
 20
8741.356303541762
 30
0.0
 11
14042.40074179075
 21
8741.356303541762
 31
0.0
  0
LINE
  5
1F88C
330
1F
100
AcDbEntity
  8
Aanzichtlijnen
 62
     8
100
AcDbLine
 10
14465.04466364616
 20
8714.356179052817
 30
0.0
 11
14042.40074179076
 21
8714.356179052815
 31
0.0
  0
LINE
  5
1F88D
330
1F
100
AcDbEntity
  8
Aanzichtlijnen
 62
     8
100
AcDbLine
 10
14448.56228272289
 20
8688.356179052815
 30
0.0
 11
14042.40074179076
 21
8688.356179052815
 31
0.0
  0
LINE
  5
1F88E
330
1F
100
AcDbEntity
  8
Aanzichtlijnen
 62
     8
100
AcDbLine
 10
14424.47264906582
 20
8650.356179052815
 30
0.0
 11
14042.40074179076
 21
8650.356179052815
 31
0.0
  0
LINE
  5
1F88F
330
1F
100
AcDbEntity
  8
Aanzichtlijnen
 62
     8
100
AcDbLine
 10
14407.99026814257
 20
8624.356179052815
 30
0.0
 11
14042.40074179076
 21
8624.356179052815
 31
0.0
  0
LINE
  5
1F890
330
1F
100
AcDbEntity
  8
Aanzichtlijnen
100
AcDbLine
 10
14083.41415149993
 20
8112.356179052815
 30
0.0
 11
14042.40074179076
 21
8112.356179052815
 31
0.0
  0
LINE
  5
1F891
330
1F
100
AcDbEntity
  8
Aanzichtlijnen
 62
     8
100
AcDbLine
 10
14099.89653242319
 20
8138.356179052815
 30
0.0
 11
14042.40074179076
 21
8138.356179052815
 31
0.0
  0
LINE
  5
1F892
330
1F
100
AcDbEntity
  8
Aanzichtlijnen
 62
     8
100
AcDbLine
 10
14123.98616608026
 20
8176.356179052815
 30
0.0
 11
14042.40074179076
 21
8176.356179052815
 31
0.0
  0
LINE
  5
1F893
330
1F
100
AcDbEntity
  8
Aanzichtlijnen
 62
     8
100
AcDbLine
 10
14140.46854700352
 20
8202.356179052816
 30
0.0
 11
14042.40074179076
 21
8202.356179052815
 31
0.0
  0
LINE
  5
1F894
330
1F
100
AcDbEntity
  8
Aanzichtlijnen
 62
     8
100
AcDbLine
 10
14164.55818066059
 20
8240.356179052815
 30
0.0
 11
14042.40074179076
 21
8240.356179052815
 31
0.0
  0
LINE
  5
1F895
330
1F
100
AcDbEntity
  8
Aanzichtlijnen
 62
     8
100
AcDbLine
 10
14181.04056158385
 20
8266.356179052817
 30
0.0
 11
14042.40074179076
 21
8266.356179052815
 31
0.0
  0
LINE
  5
1F896
330
1F
100
AcDbEntity
  8
Aanzichtlijnen
 62
     8
100
AcDbLine
 10
14205.13019524092
 20
8304.356179052815
 30
0.0
 11
14042.40074179076
 21
8304.356179052815
 31
0.0
  0
LINE
  5
1F897
330
1F
100
AcDbEntity
  8
Aanzichtlijnen
 62
     8
100
AcDbLine
 10
14221.61257616417
 20
8330.356179052815
 30
0.0
 11
14042.40074179076
 21
8330.356179052815
 31
0.0
  0
LINE
  5
1F898
330
1F
100
AcDbEntity
  8
Aanzichtlijnen
 62
     8
100
AcDbLine
 10
14245.70220982125
 20
8368.356179052815
 30
0.0
 11
14042.40074179076
 21
8368.356179052815
 31
0.0
  0
LINE
  5
1F899
330
1F
100
AcDbEntity
  8
Aanzichtlijnen
 62
     8
100
AcDbLine
 10
14262.18459074451
 20
8394.356179052815
 30
0.0
 11
14042.40074179076
 21
8394.356179052815
 31
0.0
  0
LINE
  5
1F89A
330
1F
100
AcDbEntity
  8
Aanzichtlijnen
 62
     8
100
AcDbLine
 10
14286.27422440158
 20
8432.356179052815
 30
0.0
 11
14042.40074179076
 21
8432.356179052815
 31
0.0
  0
LINE
  5
1F89B
330
1F
100
AcDbEntity
  8
Aanzichtlijnen
 62
     8
100
AcDbLine
 10
14302.75660532483
 20
8458.356179052815
 30
0.0
 11
14042.40074179076
 21
8458.356179052815
 31
0.0
  0
LINE
  5
1F89C
330
1F
100
AcDbEntity
  8
Aanzichtlijnen
 62
     8
100
AcDbLine
 10
14326.84623898191
 20
8496.356179052815
 30
0.0
 11
14042.40074179076
 21
8496.356179052815
 31
0.0
  0
LINE
  5
1F89D
330
1F
100
AcDbEntity
  8
Aanzichtlijnen
 62
     8
100
AcDbLine
 10
14343.32861990516
 20
8522.356179052815
 30
0.0
 11
14042.40074179076
 21
8522.356179052815
 31
0.0
  0
DIMENSION
  5
1F925
102
{ACAD_XDICTIONARY
360
1F926
102
}
102
{ACAD_REACTORS
330
1F937
102
}
330
1F
100
AcDbEntity
  8
Maatvoering
100
AcDbDimension
280
     0
  2
*D11
 10
15425.52309788105
 20
8112.356179052815
 30
0.0
 11
15425.52309788105
 21
8427.356241297292
 31
0.0
 70
    32
 71
     5
 42
630.0001244889481
 73
     0
 74
     0
 75
     0
  3
Maatvoering 2 detail 1-5
100
AcDbAlignedDimension
 13
15342.40074179075
 23
8742.356303541763
 33
0.0
 14
15342.40074179075
 24
8112.356179052815
 34
0.0
 50
90.0
100
AcDbRotatedDimension
1001
AcadAnnotative
1000
AnnotativeData
1002
{
1070
     1
1070
     1
1002
}
1001
ACAD
1000
DSTYLE
1002
{
1070
   147
1040
25.0
1002
}
  0
LWPOLYLINE
  5
23DA9
330
1F
100
AcDbEntity
  8
Hulplijnen
100
AcDbPolyline
 90
        4
 70
     1
 43
0.0
 10
13440.54445572922
 20
6955.589604155254
 10
16193.12529405769
 20
6955.589604155254
 10
16193.12529405769
 20
8838.077759152001
 10
13440.54445572922
 20
8838.077759152001
  0
INSERT
  5
23DAA
330
1F
100
AcDbEntity
  8
Hulplijnen
100
AcDbBlockReference
  2
Copyright
 10
14194.82051091441
 20
7265.893775998481
 30
0.0
  0
VIEWPORT
  5
23D8E
102
{ACAD_XDICTIONARY
360
23D8F
102
}
330
23D87
100
AcDbEntity
 67
     1
  8
0
100
AcDbViewport
 10
143.4359283447265
 20
98.18158054351806
 30
0.0
 40
496.7522511460124
 41
222.1517806396485
 68
     1
 69
     1
 12
143.4359283447265
 22
98.18158054351806
 13
0.0
 23
0.0
 14
10.0
 24
10.0
 15
10.0
 25
10.0
 16
0.0
 26
0.0
 36
1.0
 17
0.0
 27
0.0
 37
0.0
 42
50.0
 43
0.0
 44
0.0
 45
222.1517806396485
 50
0.0
 51
0.0
 72
  1000
 90
   819232
  1

281
     0
 71
     1
 74
     0
110
0.0
120
0.0
130
0.0
111
1.0
121
0.0
131
0.0
112
0.0
122
1.0
132
0.0
 79
     0
146
0.0
170
     0
 61
     5
348
F5
292
     1
282
     1
141
0.0
142
0.0
 63
   250
421
  3355443
  0
VIEWPORT
  5
23D92
102
{ACAD_XDICTIONARY
360
23D93
102
}
330
23D87
100
AcDbEntity
 67
     1
  8
0
100
AcDbViewport
 10
143.4359130859375
 20
98.18158769607544
 30
0.0
 40
229.4974609375
 41
157.0905403137207
 68
     2
 69
     2
 12
-2593.286789339018
 22
-965.9050366208667
 13
0.0
 23
0.0
 14
10.0
 24
10.0
 15
10.0
 25
10.0
 16
-0.0000000000181899
 26
0.0
 36
89783.14936059669
 17
17410.14001464844
 27
8890.31591796875
 37
0.0
 42
50.0
 43
0.0
 44
0.0
 45
1958.965861000298
 50
0.0
 51
0.0
 72
  1000
 90
   827488
  1

281
     0
 71
     1
 74
     0
110
0.0
120
0.0
130
0.0
111
1.0
121
0.0
131
0.0
112
0.0
122
1.0
132
0.0
 79
     0
146
0.0
170
     0
 61
     5
348
F5
292
     1
282
     1
141
0.0
142
0.0
 63
   250
421
  3355443
  0
ENDSEC
  0
SECTION
  2
OBJECTS
  0
DICTIONARY
  5
C
330
0
100
AcDbDictionary
281
     1
  3
ACAD_BACKGROUND
350
223
  3
ACAD_CIP_PREVIOUS_PRODUCT_INFO
350
2AD8
  3
ACAD_COLOR
350
6B
  3
ACAD_DETAILVIEWSTYLE
350
2AD2
  3
ACAD_GROUP
350
D
  3
ACAD_IMAGE_DICT
350
381C
  3
ACAD_IMAGE_VARS
350
381E
  3
ACAD_LAYOUT
350
1A
  3
ACAD_MATERIAL
350
6A
  3
ACAD_MLEADERSTYLE
350
12D
  3
ACAD_MLINESTYLE
350
17
  3
ACAD_PDFDEFINITIONS
350
AF18
  3
ACAD_PLOTSETTINGS
350
19
  3
ACAD_PLOTSTYLENAME
350
E
  3
ACAD_SCALELIST
350
10C
  3
ACAD_SECTIONVIEWSTYLE
350
2AD0
  3
ACAD_TABLESTYLE
350
7E
  3
ACAD_VISUALSTYLE
350
EF
  3
ACAD_WIPEOUT_VARS
350
9FAF
  3
ACDB_RECOMPOSE_DATA
350
24000
  3
AcDbVariableDictionary
350
5E
  3
AEC_PROPERTY_SET_DEFS
350
3399
  3
BNS_VARIABLES
350
6726
  3
SY_ROOT_DICTIONARY
350
67B4
  0
DICTIONARY
  5
1FF
330
2
100
AcDbDictionary
280
     1
281
     1
  3
ACAD_LAYERSTATES
360
200
  3
ACLYDICTIONARY
360
2C29
  0
DICTIONARY
  5
13C
330
10
100
AcDbDictionary
280
     1
281
     1
  0
DICTIONARY
  5
41F8
330
41F7
100
AcDbDictionary
280
     1
281
     1
  0
DICTIONARY
  5
1CE
330
1F
100
AcDbDictionary
280
     1
281
     1
  3
ACAD_SORTENTS
360
269
  0
DICTIONARY
  5
23D9F
330
23D9E
100
AcDbDictionary
280
     1
281
     1
  3
ACAD_MTEXT_2008_RT
360
23FFF
  0
DICTIONARY
  5
117E8
330
117E7
100
AcDbDictionary
280
     1
281
     1
  3
AcDbContextDataManager
360
117E9
  0
DICTIONARY
  5
11865
330
11864
100
AcDbDictionary
280
     1
281
     1
  3
AcDbContextDataManager
360
11866
  0
DICTIONARY
  5
11A28
330
11A27
100
AcDbDictionary
280
     1
281
     1
  3
AcDbContextDataManager
360
11A29
  0
DICTIONARY
  5
1D898
330
1D897
100
AcDbDictionary
280
     1
281
     1
  3
AcDbContextDataManager
360
1D899
  0
DICTIONARY
  5
1D8D7
330
1D8D6
100
AcDbDictionary
280
     1
281
     1
  3
AcDbContextDataManager
360
1D8D8
  0
DICTIONARY
  5
1D8FD
330
1D8FC
100
AcDbDictionary
280
     1
281
     1
  3
AcDbContextDataManager
360
1D8FE
  0
DICTIONARY
  5
1F820
330
1F81F
100
AcDbDictionary
280
     1
281
     1
  3
AcDbContextDataManager
360
1F821
  0
DICTIONARY
  5
1F825
330
1F824
100
AcDbDictionary
280
     1
281
     1
  3
AcDbContextDataManager
360
1F826
  0
DICTIONARY
  5
1F926
330
1F925
100
AcDbDictionary
280
     1
281
     1
  3
ACAD_DIMASSOC
360
1F937
  3
AcDbContextDataManager
360
1F927
  0
DICTIONARY
  5
23D8F
330
23D8E
100
AcDbDictionary
280
     1
281
     1
  3
ASDK_XREC_ANNOTATION_SCALE_INFO
360
23D90
  0
DICTIONARY
  5
23D93
330
23D92
100
AcDbDictionary
280
     1
281
     1
  3
ASDK_XREC_ANNOTATION_SCALE_INFO
360
23D94
  0
DICTIONARY
  5
223
102
{ACAD_REACTORS
330
C
102
}
330
C
100
AcDbDictionary
281
     1
  0
XRECORD
  5
2AD8
102
{ACAD_REACTORS
330
C
102
}
330
C
100
AcDbXrecord
280
     1
300
ACD
300
2013
300
ACD_F_S
  0
DICTIONARY
  5
6B
102
{ACAD_REACTORS
330
C
102
}
330
C
100
AcDbDictionary
281
     1
  0
DICTIONARY
  5
2AD2
102
{ACAD_REACTORS
330
C
102
}
330
C
100
AcDbDictionary
281
     1
  3
Metric50
350
2AD3
  0
DICTIONARY
  5
D
102
{ACAD_REACTORS
330
C
102
}
330
C
100
AcDbDictionary
281
     1
  0
DICTIONARY
  5
381C
102
{ACAD_REACTORS
330
C
102
}
330
C
100
AcDbDictionary
281
     1
  0
RASTERVARIABLES
  5
381E
102
{ACAD_REACTORS
330
C
102
}
330
C
100
AcDbRasterVariables
 90
        0
 70
     1
 71
     1
 72
     1
  0
DICTIONARY
  5
1A
102
{ACAD_REACTORS
330
C
102
}
330
C
100
AcDbDictionary
281
     1
  3
Layout1
350
23D88
  3
Model
350
22
  0
DICTIONARY
  5
6A
102
{ACAD_REACTORS
330
C
102
}
330
C
100
AcDbDictionary
281
     1
  3
ByBlock
350
ED
  3
ByLayer
350
EC
  3
Global
350
EE
  0
DICTIONARY
  5
12D
102
{ACAD_REACTORS
330
C
102
}
330
C
100
AcDbDictionary
281
     1
  3
Standard
350
12E
  0
DICTIONARY
  5
17
102
{ACAD_REACTORS
330
C
102
}
330
C
100
AcDbDictionary
281
     1
  3
Standard
350
18
  0
DICTIONARY
  5
AF18
102
{ACAD_REACTORS
330
C
102
}
330
C
100
AcDbDictionary
281
     1
  0
DICTIONARY
  5
19
102
{ACAD_REACTORS
330
C
102
}
330
C
100
AcDbDictionary
281
     1
  0
ACDBDICTIONARYWDFLT
  5
E
102
{ACAD_REACTORS
330
C
102
}
330
C
100
AcDbDictionary
281
     1
  3
Normal
350
F
100
AcDbDictionaryWithDefault
340
F
  0
DICTIONARY
  5
10C
102
{ACAD_REACTORS
330
C
102
}
330
C
100
AcDbDictionary
281
     1
  3
A0
350
10D
  3
A1
350
1BE
  3
A2
350
1A217
  3
A3
350
1C0
  3
A4
350
1A218
  3
A5
350
1C2
  3
A6
350
1C3
  3
A7
350
1C4
  3
A8
350
1A219
  3
A9
350
1A21A
  3
B0
350
1C7
  3
B1
350
1C8
  3
B2
350
1A21B
  3
B3
350
1A21C
  3
B4
350
1A21D
  3
B5
350
1A21E
  3
B6
350
1A21F
  0
DICTIONARY
  5
2AD0
102
{ACAD_REACTORS
330
C
102
}
330
C
100
AcDbDictionary
281
     1
  3
Metric50
350
2AD1
  0
DICTIONARY
  5
7E
102
{ACAD_REACTORS
330
C
102
}
330
C
100
AcDbDictionary
281
     1
  3
Standard
350
7F
  0
DICTIONARY
  5
EF
102
{ACAD_REACTORS
330
C
102
}
330
C
100
AcDbDictionary
281
     1
  3
2dWireframe
350
F5
  3
Basic
350
F4
  3
Brighten
350
FB
  3
ColorChange
350
FF
  3
Conceptual
350
F8
  3
Dim
350
FA
  3
EdgeColorOff
350
1E6
  3
Facepattern
350
FE
  3
Flat
350
F0
  3
FlatWithEdges
350
F1
  3
Gouraud
350
F2
  3
GouraudWithEdges
350
F3
  3
Hidden
350
F7
  3
JitterOff
350
1E4
  3
Linepattern
350
FD
  3
OverhangOff
350
1E5
  3
Realistic
350
F9
  3
Shaded
350
1F3
  3
Shaded with edges
350
1F2
  3
Shades of Gray
350
1EF
  3
Sketchy
350
1F0
  3
Thicken
350
FC
  3
Wireframe
350
F6
  3
X-Ray
350
1F1
  0
WIPEOUTVARIABLES
  5
9FAF
102
{ACAD_REACTORS
330
C
102
}
330
C
100
AcDbWipeoutVariables
 70
     1
  0
XRECORD
  5
24000
102
{ACAD_REACTORS
330
C
102
}
330
C
100
AcDbXrecord
280
     1
 90
        1
330
7F
330
11A27
330
23D9E
  0
DICTIONARY
  5
5E
102
{ACAD_REACTORS
330
C
102
}
330
C
100
AcDbDictionary
281
     1
  3
ANNOALLVISIBLE
350
4B84
  3
CANNOSCALE
350
146
  3
CMLEADERSTYLE
350
145
  3
CTABLESTYLE
350
84
  3
CVIEWDETAILSTYLE
350
3363
  3
CVIEWSECTIONSTYLE
350
3364
  3
DIMASSOC
350
5F
  3
EXPORTMODELSPACE
350
1EE2
  3
HIDETEXT
350
63
  3
HPLAYER
350
8208
  3
HPTRANSPARENCY
350
8209
  3
LAYEREVAL
350
1AE
  3
LAYERNOTIFY
350
1AF
  0
DICTIONARY
  5
3399
102
{ACAD_REACTORS
330
C
102
}
330
C
100
AcDbDictionary
281
     1
  0
DICTIONARY
  5
6726
102
{ACAD_REACTORS
330
C
102
}
330
C
100
AcDbDictionary
281
     1
  3
BNS_SPRHATCH_IMAGEOVERLAP
350
6727
  0
DICTIONARY
  5
67B4
102
{ACAD_REACTORS
330
C
102
}
330
C
100
AcDbDictionary
281
     1
  3
SY_VIEWSTD
350
67B5
  0
DICTIONARY
  5
200
102
{ACAD_REACTORS
330
1FF
102
}
330
1FF
100
AcDbDictionary
281
     1
  0
DICTIONARY
  5
2C29
102
{ACAD_REACTORS
330
1FF
102
}
330
1FF
100
AcDbDictionary
281
     1
1001
ACAD
1000
<AllUsed
  0
SORTENTSTABLE
  5
269
102
{ACAD_REACTORS
330
1CE
102
}
330
1CE
100
AcDbSortentsTable
330
1F
331
1F80F
  5
1F9DB
331
1F80E
  5
1F9AE
331
1D897
  5
1DF0C
331
1F80D
  5
1F925
331
1D8D6
  5
1DF13
331
1F80C
  5
1F8B3
331
1D8FC
  5
1DF14
331
1F80B
  5
1F89C
331
1F80A
  5
1F89A
331
1F809
  5
1F898
331
1F897
  5
1FF5F
331
124AC
  5
16DDE
331
11A27
  5
1682D
331
1F808
  5
1F896
331
1F896
  5
1FF61
331
1F817
  5
1FF5E
331
1F925
  5
1FF74
331
1F895
  5
1FF63
331
1F816
  5
1FF5C
331
1F894
  5
1FF65
331
1F815
  5
1FEFB
331
1F824
  5
1FF6F
331
1F893
  5
1FF67
331
11864
  5
163F6
331
1F814
  5
1FE67
331
1F892
  5
1FF69
331
1F813
  5
1FE0C
331
1F891
  5
1FF6B
331
1F812
  5
1FCF5
331
1F890
  5
1FF6D
331
1F811
  5
1FCF3
331
1F88F
  5
1F8B4
331
1F810
  5
1FCF2
331
1F88E
  5
1F89D
331
1F81F
  5
1FF6E
331
1F89D
  5
1FCF4
331
1F88D
  5
1F89B
331
1F81E
  5
1FF6C
331
1F89C
  5
1FD79
331
1F88C
  5
1F899
331
1F81D
  5
1FF6A
331
1F89B
  5
1FE66
331
1F88B
  5
1F897
331
1F81C
  5
1FF68
331
1F89A
  5
1FEFA
331
1F81B
  5
1FF66
331
1F82A
  5
1FF71
331
1F899
  5
1FF5B
331
1F81A
  5
1FF64
331
1F829
  5
1FF70
331
1F898
  5
1FF5D
331
1F819
  5
1FF62
331
1F818
  5
1FF60
331
117E7
  5
160B3
  0
XRECORD
  5
23FFF
102
{ACAD_REACTORS
330
23D9F
102
}
330
23D9F
100
AcDbXrecord
280
     1
 40
2865043.0
  1
\pxt6,8;COPYRIGHT: Gehele of gedeeltelijke overname, verveelvoudiging op welke wijze dan ook en/of commercieel gebruik van deze informatie is niet toegestaan, tenzij hiervoor uitdrukkelijk schriftelijke toestemming is verleend door DUOFOR B.V.
  0
DICTIONARY
  5
117E9
102
{ACAD_REACTORS
330
117E8
102
}
330
117E8
100
AcDbDictionary
281
     1
  3
ACDB_ANNOTATIONSCALES
350
117EA
  0
DICTIONARY
  5
11866
102
{ACAD_REACTORS
330
11865
102
}
330
11865
100
AcDbDictionary
281
     1
  3
ACDB_ANNOTATIONSCALES
350
11867
  0
DICTIONARY
  5
11A29
102
{ACAD_REACTORS
330
11A28
102
}
330
11A28
100
AcDbDictionary
281
     1
  3
ACDB_ANNOTATIONSCALES
350
11A2A
  0
DICTIONARY
  5
1D899
102
{ACAD_REACTORS
330
1D898
102
}
330
1D898
100
AcDbDictionary
281
     1
  3
ACDB_ANNOTATIONSCALES
350
1D89A
  0
DICTIONARY
  5
1D8D8
102
{ACAD_REACTORS
330
1D8D7
102
}
330
1D8D7
100
AcDbDictionary
281
     1
  3
ACDB_ANNOTATIONSCALES
350
1D8D9
  0
DICTIONARY
  5
1D8FE
102
{ACAD_REACTORS
330
1D8FD
102
}
330
1D8FD
100
AcDbDictionary
281
     1
  3
ACDB_ANNOTATIONSCALES
350
1D8FF
  0
DICTIONARY
  5
1F821
102
{ACAD_REACTORS
330
1F820
102
}
330
1F820
100
AcDbDictionary
281
     1
  3
ACDB_ANNOTATIONSCALES
350
1F822
  0
DICTIONARY
  5
1F826
102
{ACAD_REACTORS
330
1F825
102
}
330
1F825
100
AcDbDictionary
281
     1
  3
ACDB_ANNOTATIONSCALES
350
1F827
  0
DIMASSOC
  5
1F937
102
{ACAD_REACTORS
330
1F926
102
}
330
1F926
100
AcDbDimAssoc
330
1F925
 90
        2
 70
     0
 71
     0
  1
AcDbOsnapPointRef
 72
    13
331
1F81E
 73
     2
 91
        0
 40
0.0
 10
0.0
 20
0.0
 30
2.000000000000000E+50
 75
     0
  0
DICTIONARY
  5
1F927
102
{ACAD_REACTORS
330
1F926
102
}
330
1F926
100
AcDbDictionary
281
     1
  3
ACDB_ANNOTATIONSCALES
350
1F928
  0
XRECORD
  5
23D90
102
{ACAD_REACTORS
330
23D8F
102
}
330
23D8F
100
AcDbXrecord
280
     1
 90
        1
340
10D
  0
XRECORD
  5
23D94
102
{ACAD_REACTORS
330
23D93
102
}
330
23D93
100
AcDbXrecord
280
     1
 90
        1
340
10D
  0
ACDBDETAILVIEWSTYLE
  5
2AD3
102
{ACAD_REACTORS
330
2AD2
102
}
330
2AD2
100
AcDbModelDocViewStyle
 70
     0
  3
Metric50
290
     0
100
AcDbDetailViewStyle
 70
     0
 71
     0
 90
        3
 71
     1
340
11
 62
   256
 40
5.0
340
0
 62
   256
 40
5.0
300

 40
0.0
280
     1
 71
     2
340
16
 90
       25
 62
   256
 71
     3
340
11
 62
   256
 40
5.0
 90
        0
 40
15.0
 90
        1
300
%<\AcVar ViewDetailId>% (%<\AcVar ViewScale \f "%sn">%)
 71
     4
340
16
 90
       25
 62
   256
340
16
 90
       25
 62
   256
280
     0
  0
LAYOUT
  5
23D88
102
{ACAD_REACTORS
330
1A
102
}
330
1A
100
AcDbPlotSettings
  1

  2
\\NLDFSBS\Brother MFC-8950DW Wit
  4
A4
  6

 40
6.805083274841308
 41
5.027099609375
 42
6.805068969726562
 43
5.027069091796875
 44
209.9733276367187
 45
296.9259948730469
 46
0.0
 47
0.0
 48
0.0
 49
0.0
140
0.0
141
0.0
142
1.0
143
1.0
 70
   688
 72
     1
 73
     1
 74
     5
  7

 75
    16
147
1.0
 76
     0
 77
     2
 78
   300
148
0.0
149
0.0
100
AcDbLayout
  1
Layout1
 70
     1
 71
     1
 10
-5.027069091796875
 20
-6.805083274841308
 11
291.89892578125
 21
203.1682443618775
 12
0.0
 22
0.0
 32
0.0
 14
28.68718261718749
 24
19.6363175392151
 34
0.0
 15
258.1846435546875
 25
176.7268578529358
 35
0.0
146
0.0
 13
0.0
 23
0.0
 33
0.0
 16
1.0
 26
0.0
 36
0.0
 17
0.0
 27
1.0
 37
0.0
 76
     0
330
23D87
331
23D8E
1001
ACAD_PSEXT
1000
\\NLDFSBS\Brother MFC-8950DW Wit
1000
Brother MFC-8950DW Printer
1000
\\NLDFSBS
1000

1070
     0
  0
LAYOUT
  5
22
102
{ACAD_XDICTIONARY
360
205
102
}
102
{ACAD_REACTORS
330
1A
102
}
330
1A
100
AcDbPlotSettings
  1

  2
none_device
  4
ISO_A4_(210.00_x_297.00_MM)
  6

 40
7.5
 41
20.0
 42
7.5
 43
20.0
 44
210.0
 45
297.0
 46
11.54999923706054
 47
-13.65000009536743
 48
0.0
 49
0.0
140
0.0
141
0.0
142
1.0
143
8.704084754739808
 70
 11952
 72
     1
 73
     0
 74
     0
  7
DUOFOR zwart.ctb
 75
     0
147
0.1148885871608098
 76
     0
 77
     2
 78
   300
148
0.0
149
0.0
100
AcDbLayout
  1
Model
 70
     1
 71
     0
 10
0.0
 20
0.0
 11
12.0
 21
9.0
 12
0.0
 22
0.0
 32
0.0
 14
0.0
 24
0.0
 34
0.0
 15
0.0
 25
0.0
 35
0.0
146
0.0
 13
0.0
 23
0.0
 33
0.0
 16
1.0
 26
0.0
 36
0.0
 17
0.0
 27
1.0
 37
0.0
 76
     0
330
1F
331
EA
1001
ACAD_PSEXT
1000
None
1000
None
1000
Not applicable
1000
The layout will not be plotted unless a new plotter configuration name is selected.
1070
     0
  0
MATERIAL
  5
ED
102
{ACAD_XDICTIONARY
360
1F9
102
}
102
{ACAD_REACTORS
330
6A
102
}
330
6A
100
AcDbMaterial
  1
ByBlock
 94
       63
  0
MATERIAL
  5
EC
102
{ACAD_XDICTIONARY
360
1F7
102
}
102
{ACAD_REACTORS
330
6A
102
}
330
6A
100
AcDbMaterial
  1
ByLayer
 94
       63
  0
MATERIAL
  5
EE
102
{ACAD_XDICTIONARY
360
173
102
}
102
{ACAD_REACTORS
330
6A
102
}
330
6A
100
AcDbMaterial
  1
Global
 43
0.0007999999797903
 43
0.0
 43
0.0
 43
0.0
 43
0.0
 43
0.0007999999797903
 43
0.0
 43
0.0
 43
0.0
 43
0.0
 43
1.0
 43
0.0
 43
0.0
 43
0.0
 43
0.0
 43
1.0
 49
0.0007999999797903
 49
0.0
 49
0.0
 49
0.0
 49
0.0
 49
0.0007999999797903
 49
0.0
 49
0.0
 49
0.0
 49
0.0
 49
1.0
 49
0.0
 49
0.0
 49
0.0
 49
0.0
 49
1.0
142
0.0007999999797903
142
0.0
142
0.0
142
0.0
142
0.0
142
0.0007999999797903
142
0.0
142
0.0
142
0.0
142
0.0
142
1.0
142
0.0
142
0.0
142
0.0
142
0.0
142
1.0
144
0.0007999999797903
144
0.0
144
0.0
144
0.0
144
0.0
144
0.0007999999797903
144
0.0
144
0.0
144
0.0
144
0.0
144
1.0
144
0.0
144
0.0
144
0.0
144
0.0
144
1.0
 94
       63
1001
ACAD
1070
    -1
1070
     3
1070
     0
1000

1071
        0
1070
     0
  0
MLEADERSTYLE
  5
12E
102
{ACAD_REACTORS
330
12D
102
}
330
12D
100
AcDbMLeaderStyle
179
     2
170
     2
171
     1
172
     0
 90
        2
 40
0.0
 41
0.0
173
     1
 91
-1056964608
340
14
 92
       -2
290
     1
 42
2.0
291
     1
 43
8.0
  3
Standard
 44
4.0
300

342
11
174
     1
178
     1
175
     1
176
     0
 93
-1056964608
 45
4.0
292
     0
297
     0
 46
4.0
 94
-1056964608
 47
1.0
 49
1.0
140
1.0
293
     1
141
0.0
294
     1
177
     0
142
1.0
295
     0
296
     0
143
3.75
271
     0
272
     9
273
     9
298
     0
  0
MLINESTYLE
  5
18
102
{ACAD_REACTORS
330
17
102
}
330
17
100
AcDbMlineStyle
  2
STANDARD
 70
     0
  3

 62
   256
 51
90.0
 52
90.0
 71
     2
 49
0.5
 62
   256
  6
BYLAYER
 49
-0.5
 62
   256
  6
BYLAYER
  0
ACDBPLACEHOLDER
  5
F
102
{ACAD_REACTORS
330
E
102
}
330
E
  0
SCALE
  5
10D
102
{ACAD_REACTORS
330
10C
102
}
330
10C
100
AcDbScale
 70
     0
300
1:1
140
1.0
141
1.0
290
     1
  0
SCALE
  5
1BE
102
{ACAD_REACTORS
330
10C
102
}
330
10C
100
AcDbScale
 70
     0
300
1:2
140
1.0
141
2.0
290
     0
  0
SCALE
  5
1A217
102
{ACAD_REACTORS
330
10C
102
}
330
10C
100
AcDbScale
 70
     0
300
1:4
140
1.0
141
4.0
290
     0
  0
SCALE
  5
1C0
102
{ACAD_REACTORS
330
10C
102
}
330
10C
100
AcDbScale
 70
     0
300
1:5
140
1.0
141
5.0
290
     0
  0
SCALE
  5
1A218
102
{ACAD_REACTORS
330
10C
102
}
330
10C
100
AcDbScale
 70
     0
300
1:8
140
1.0
141
8.0
290
     0
  0
SCALE
  5
1C2
102
{ACAD_REACTORS
330
10C
102
}
330
10C
100
AcDbScale
 70
     0
300
1:10
140
1.0
141
10.0
290
     0
  0
SCALE
  5
1C3
102
{ACAD_REACTORS
330
10C
102
}
330
10C
100
AcDbScale
 70
     0
300
1:16
140
1.0
141
16.0
290
     0
  0
SCALE
  5
1C4
102
{ACAD_REACTORS
330
10C
102
}
330
10C
100
AcDbScale
 70
     0
300
1:20
140
1.0
141
20.0
290
     0
  0
SCALE
  5
1A219
102
{ACAD_REACTORS
330
10C
102
}
330
10C
100
AcDbScale
 70
     0
300
1:30
140
1.0
141
30.0
290
     0
  0
SCALE
  5
1A21A
102
{ACAD_REACTORS
330
10C
102
}
330
10C
100
AcDbScale
 70
     0
300
1:40
140
1.0
141
40.0
290
     0
  0
SCALE
  5
1C7
102
{ACAD_REACTORS
330
10C
102
}
330
10C
100
AcDbScale
 70
     0
300
1:50
140
1.0
141
50.0
290
     0
  0
SCALE
  5
1C8
102
{ACAD_REACTORS
330
10C
102
}
330
10C
100
AcDbScale
 70
     0
300
1:100
140
1.0
141
100.0
290
     0
  0
SCALE
  5
1A21B
102
{ACAD_REACTORS
330
10C
102
}
330
10C
100
AcDbScale
 70
     0
300
2:1
140
2.0
141
1.0
290
     0
  0
SCALE
  5
1A21C
102
{ACAD_REACTORS
330
10C
102
}
330
10C
100
AcDbScale
 70
     0
300
4:1
140
4.0
141
1.0
290
     0
  0
SCALE
  5
1A21D
102
{ACAD_REACTORS
330
10C
102
}
330
10C
100
AcDbScale
 70
     0
300
8:1
140
8.0
141
1.0
290
     0
  0
SCALE
  5
1A21E
102
{ACAD_REACTORS
330
10C
102
}
330
10C
100
AcDbScale
 70
     0
300
10:1
140
10.0
141
1.0
290
     0
  0
SCALE
  5
1A21F
102
{ACAD_REACTORS
330
10C
102
}
330
10C
100
AcDbScale
 70
     0
300
100:1
140
100.0
141
1.0
290
     0
  0
ACDBSECTIONVIEWSTYLE
  5
2AD1
102
{ACAD_REACTORS
330
2AD0
102
}
330
2AD0
100
AcDbModelDocViewStyle
 70
     0
  3
Metric50
290
     0
100
AcDbSectionViewStyle
 70
     0
 71
     0
 90
      102
 71
     1
340
11
 62
   256
 40
5.0
340
0
340
0
 62
   256
 40
5.0
300
I, O, Q, S, X, Z
 40
10.0
 90
        0
 40
2.5
 90
        0
 71
     2
340
16
 90
       25
 62
   256
340
16
 90
       50
 62
   256
 40
5.0
 40
2.5
 40
5.0
 71
     3
340
11
 62
   256
 40
5.0
 90
        0
 40
15.0
 90
        1
300
%<\AcVar ViewSectionStartId>%-%<\AcVar ViewSectionEndId>% (%<\AcVar ViewScale \f "%sn">%)
 71
     4
 62
   256
 62
   257
300
ANSI31
 40
1.0
 90
        0
290
     0
290
     0
 90
        6
 40
0.0
 40
1.570796326794896
 40
0.2617993877991494
 40
1.308996938995747
 40
-0.2617993877991494
 40
1.832595714594046
  0
TABLESTYLE
  5
7F
102
{ACAD_XDICTIONARY
360
162
102
}
102
{ACAD_REACTORS
330
7E
102
}
330
7E
100
AcDbTableStyle
280
     0
  3
Standard
 70
     0
 71
     0
 40
1.5
 41
1.5
280
     0
281
     0
  7
Standard
140
4.5
170
     2
 62
     0
 63
     7
283
     0
 90
      512
 91
        0
  1

274
    -2
284
     1
 64
     0
275
    -2
285
     1
 65
     0
276
    -2
286
     1
 66
     0
277
    -2
287
     1
 67
     0
278
    -2
288
     1
 68
     0
279
    -2
289
     1
 69
     0
  7
Standard
140
6.0
170
     5
 62
     0
 63
     7
283
     0
 90
      512
 91
        0
  1

274
    -2
284
     1
 64
     0
275
    -2
285
     1
 65
     0
276
    -2
286
     1
 66
     0
277
    -2
287
     1
 67
     0
278
    -2
288
     1
 68
     0
279
    -2
289
     1
 69
     0
  7
Standard
140
4.5
170
     5
 62
     0
 63
     7
283
     0
 90
      512
 91
        0
  1

274
    -2
284
     1
 64
     0
275
    -2
285
     1
 65
     0
276
    -2
286
     1
 66
     0
277
    -2
287
     1
 67
     0
278
    -2
288
     1
 68
     0
279
    -2
289
     1
 69
     0
  0
VISUALSTYLE
  5
F5
102
{ACAD_REACTORS
330
EF
102
}
330
EF
100
AcDbVisualStyle
  2
2dWireframe
 70
     4
177
     3
291
     0
 70
    58
 90
        0
176
     1
 90
        2
176
     1
 90
        1
176
     1
 90
        0
176
     1
 40
0.6
176
     1
 40
30.0
176
     1
 62
     7
420
 16777215
176
     1
 90
        1
176
     1
 90
        4
176
     1
 62
     7
176
     1
 62
   257
176
     1
 90
        1
176
     1
 90
        1
176
     1
 40
1.0
176
     1
 90
        0
176
     1
 62
   257
176
     1
 40
1.0
176
     1
 90
        1
176
     1
 90
        6
176
     1
 90
        2
176
     1
 62
     7
176
     1
 90
        5
176
     1
 90
        0
176
     1
 90
        0
176
     1
290
     0
176
     1
 90
        1
176
     1
 40
0.0
176
     1
 90
        0
176
     1
290
     1
176
     1
290
     1
176
     1
290
     0
176
     1
290
     0
176
     1
290
     0
176
     1
290
     0
176
     1
290
     0
176
     1
290
     0
176
     1
290
     0
176
     1
 90
       50
176
     1
 40
0.0
176
     1
 40
1.0
176
     1
 90
        0
176
     1
 62
    18
420
        0
176
     1
 90
       50
176
     1
 90
        3
176
     1
 62
     5
420
      255
176
     1
290
     0
176
     1
 90
       50
176
     1
 90
       50
176
     1
 90
       50
176
     1
290
     0
176
     1
 90
       50
176
     1
 62
   256
176
     0
 40
1.0
176
     0
 90
        2
176
     1
  1
strokes_ogs.tif
176
     1
290
     0
176
     1
 40
1.0
176
     1
 40
1.0
176
     1
  0
VISUALSTYLE
  5
F4
102
{ACAD_REACTORS
330
EF
102
}
330
EF
100
AcDbVisualStyle
  2
Basic
 70
     7
177
     3
291
     1
 70
    58
 90
        1
176
     1
 90
        0
176
     1
 90
        1
176
     1
 90
        0
176
     1
 40
0.6
176
     1
 40
30.0
176
     1
 62
     7
420
 16777215
176
     1
 90
        0
176
     1
 90
        4
176
     1
 62
     7
176
     1
 62
   257
176
     1
 90
        1
176
     1
 90
        1
176
     1
 40
1.0
176
     1
 90
        8
176
     1
 62
     7
176
     1
 40
1.0
176
     1
 90
        1
176
     1
 90
        6
176
     1
 90
        2
176
     1
 62
     7
176
     1
 90
        5
176
     1
 90
        0
176
     1
 90
        0
176
     1
290
     0
176
     1
 90
        1
176
     1
 40
0.0
176
     1
 90
        0
176
     1
290
     0
176
     1
290
     1
176
     1
290
     1
176
     1
290
     0
176
     1
290
     0
176
     1
290
     0
176
     1
290
     0
176
     1
290
     0
176
     1
290
     0
176
     1
 90
       50
176
     1
 40
0.0
176
     1
 40
1.0
176
     1
 90
        0
176
     1
 62
    18
420
        0
176
     1
 90
       50
176
     1
 90
        3
176
     1
 62
     5
420
      255
176
     1
290
     0
176
     1
 90
       50
176
     1
 90
       50
176
     1
 90
       50
176
     1
290
     0
176
     1
 90
       50
176
     1
 62
   256
176
     0
 40
1.0
176
     0
 90
        2
176
     1
  1
strokes_ogs.tif
176
     1
290
     0
176
     1
 40
1.0
176
     1
 40
1.0
176
     1
  0
VISUALSTYLE
  5
FB
102
{ACAD_REACTORS
330
EF
102
}
330
EF
100
AcDbVisualStyle
  2
Brighten
 70
    12
177
     3
291
     1
 70
    58
 90
        2
176
     1
 90
        2
176
     1
 90
        1
176
     1
 90
        0
176
     1
 40
0.6
176
     1
 40
30.0
176
     1
 62
     7
420
 16777215
176
     1
 90
        1
176
     1
 90
        4
176
     1
 62
     7
176
     1
 62
   257
176
     1
 90
        1
176
     1
 90
        1
176
     1
 40
1.0
176
     1
 90
        8
176
     1
 62
     7
176
     1
 40
1.0
176
     1
 90
        1
176
     1
 90
        6
176
     1
 90
        2
176
     1
 62
     7
176
     1
 90
        5
176
     1
 90
        0
176
     1
 90
        0
176
     1
290
     0
176
     1
 90
        1
176
     1
 40
50.0
176
     1
 90
        0
176
     1
290
     0
176
     1
290
     1
176
     1
290
     1
176
     1
290
     0
176
     1
290
     0
176
     1
290
     0
176
     1
290
     0
176
     1
290
     0
176
     1
290
     0
176
     1
 90
       50
176
     1
 40
0.0
176
     1
 40
1.0
176
     1
 90
        0
176
     1
 62
    18
420
        0
176
     1
 90
       50
176
     1
 90
        3
176
     1
 62
     5
420
      255
176
     1
290
     0
176
     1
 90
       50
176
     1
 90
       50
176
     1
 90
       50
176
     1
290
     0
176
     1
 90
       50
176
     1
 62
   256
176
     0
 40
1.0
176
     0
 90
        2
176
     1
  1
strokes_ogs.tif
176
     1
290
     0
176
     1
 40
1.0
176
     1
 40
1.0
176
     1
  0
VISUALSTYLE
  5
FF
102
{ACAD_REACTORS
330
EF
102
}
330
EF
100
AcDbVisualStyle
  2
ColorChange
 70
    16
177
     3
291
     1
 70
    58
 90
        2
176
     1
 90
        2
176
     1
 90
        3
176
     1
 90
        0
176
     1
 40
0.6
176
     1
 40
30.0
176
     1
 62
     8
420
  8421504
176
     1
 90
        1
176
     1
 90
        4
176
     1
 62
     7
176
     1
 62
   257
176
     1
 90
        1
176
     1
 90
        1
176
     1
 40
1.0
176
     1
 90
        8
176
     1
 62
     8
420
  8421504
176
     1
 40
1.0
176
     1
 90
        1
176
     1
 90
        6
176
     1
 90
        2
176
     1
 62
     7
176
     1
 90
        5
176
     1
 90
        0
176
     1
 90
        0
176
     1
290
     0
176
     1
 90
        1
176
     1
 40
0.0
176
     1
 90
        0
176
     1
290
     0
176
     1
290
     1
176
     1
290
     1
176
     1
290
     0
176
     1
290
     0
176
     1
290
     0
176
     1
290
     0
176
     1
290
     0
176
     1
290
     0
176
     1
 90
       50
176
     1
 40
0.0
176
     1
 40
1.0
176
     1
 90
        0
176
     1
 62
    18
420
        0
176
     1
 90
       50
176
     1
 90
        3
176
     1
 62
     5
420
      255
176
     1
290
     0
176
     1
 90
       50
176
     1
 90
       50
176
     1
 90
       50
176
     1
290
     0
176
     1
 90
       50
176
     1
 62
   256
176
     0
 40
1.0
176
     0
 90
        2
176
     1
  1
strokes_ogs.tif
176
     1
290
     0
176
     1
 40
1.0
176
     1
 40
1.0
176
     1
  0
VISUALSTYLE
  5
F8
102
{ACAD_REACTORS
330
EF
102
}
330
EF
100
AcDbVisualStyle
  2
Conceptual
 70
     9
177
     3
291
     0
 70
    58
 90
        3
176
     1
 90
        2
176
     1
 90
        1
176
     1
 90
        0
176
     1
 40
0.6
176
     1
 40
30.0
176
     1
 62
     7
420
 16777215
176
     1
 90
        2
176
     1
 90
        2
176
     1
 62
     7
176
     1
 62
   257
176
     1
 90
        1
176
     1
 90
        1
176
     1
 40
40.0
176
     1
 90
        8
176
     1
 62
     7
176
     1
 40
1.0
176
     1
 90
        1
176
     1
 90
        6
176
     1
 90
        2
176
     1
 62
     7
176
     1
 90
        3
176
     1
 90
        0
176
     1
 90
        0
176
     1
290
     0
176
     1
 90
        1
176
     1
 40
0.0
176
     1
 90
        0
176
     1
290
     0
176
     1
290
     1
176
     1
290
     1
176
     1
290
     0
176
     1
290
     0
176
     1
290
     0
176
     1
290
     0
176
     1
290
     0
176
     1
290
     0
176
     1
 90
       50
176
     1
 40
0.0
176
     1
 40
1.0
176
     1
 90
        0
176
     1
 62
    18
420
        0
176
     1
 90
       50
176
     1
 90
        3
176
     1
 62
     5
420
      255
176
     1
290
     0
176
     1
 90
       50
176
     1
 90
       50
176
     1
 90
       50
176
     1
290
     0
176
     1
 90
       50
176
     1
 62
   256
176
     0
 40
1.0
176
     0
 90
        2
176
     1
  1
strokes_ogs.tif
176
     1
290
     0
176
     1
 40
1.0
176
     1
 40
1.0
176
     1
  0
VISUALSTYLE
  5
FA
102
{ACAD_REACTORS
330
EF
102
}
330
EF
100
AcDbVisualStyle
  2
Dim
 70
    11
177
     3
291
     1
 70
    58
 90
        2
176
     1
 90
        2
176
     1
 90
        1
176
     1
 90
        0
176
     1
 40
0.6
176
     1
 40
30.0
176
     1
 62
     7
420
 16777215
176
     1
 90
        1
176
     1
 90
        4
176
     1
 62
     7
176
     1
 62
   257
176
     1
 90
        1
176
     1
 90
        1
176
     1
 40
1.0
176
     1
 90
        8
176
     1
 62
     7
176
     1
 40
1.0
176
     1
 90
        1
176
     1
 90
        6
176
     1
 90
        2
176
     1
 62
     7
176
     1
 90
        5
176
     1
 90
        0
176
     1
 90
        0
176
     1
290
     0
176
     1
 90
        1
176
     1
 40
-50.0
176
     1
 90
        0
176
     1
290
     0
176
     1
290
     1
176
     1
290
     1
176
     1
290
     0
176
     1
290
     0
176
     1
290
     0
176
     1
290
     0
176
     1
290
     0
176
     1
290
     0
176
     1
 90
       50
176
     1
 40
0.0
176
     1
 40
1.0
176
     1
 90
        0
176
     1
 62
    18
420
        0
176
     1
 90
       50
176
     1
 90
        3
176
     1
 62
     5
420
      255
176
     1
290
     0
176
     1
 90
       50
176
     1
 90
       50
176
     1
 90
       50
176
     1
290
     0
176
     1
 90
       50
176
     1
 62
   256
176
     0
 40
1.0
176
     0
 90
        2
176
     1
  1
strokes_ogs.tif
176
     1
290
     0
176
     1
 40
1.0
176
     1
 40
1.0
176
     1
  0
VISUALSTYLE
  5
1E6
102
{ACAD_REACTORS
330
EF
102
}
330
EF
100
AcDbVisualStyle
  2
EdgeColorOff
 70
    22
177
     3
291
     1
 70
    58
 90
        2
176
     0
 90
        2
176
     0
 90
        0
176
     0
 90
        0
176
     0
 40
0.6
176
     0
 40
30.0
176
     0
 62
     7
420
 16777215
176
     0
 90
        1
176
     0
 90
        4
176
     0
 62
     7
176
     0
 62
   257
176
     0
 90
        1
176
     0
 90
        1
176
     0
 40
1.0
176
     0
 90
        8
176
     2
 62
     7
176
     0
 40
1.0
176
     0
 90
        1
176
     0
 90
        6
176
     0
 90
        2
176
     0
 62
     7
176
     0
 90
        5
176
     0
 90
        0
176
     0
 90
        0
176
     0
290
     0
176
     0
 90
        1
176
     0
 40
0.0
176
     0
 90
        0
176
     0
290
     0
176
     1
290
     1
176
     1
290
     1
176
     1
290
     0
176
     1
290
     0
176
     1
290
     0
176
     1
290
     0
176
     1
290
     0
176
     1
290
     0
176
     1
 90
       50
176
     1
 40
0.0
176
     1
 40
1.0
176
     1
 90
        0
176
     1
 62
    18
420
        0
176
     1
 90
       50
176
     1
 90
        3
176
     1
 62
     5
420
      255
176
     1
290
     0
176
     1
 90
       50
176
     1
 90
       50
176
     1
 90
       50
176
     1
290
     0
176
     1
 90
       50
176
     1
 62
   256
176
     0
 40
1.0
176
     0
 90
        2
176
     1
  1
strokes_ogs.tif
176
     1
290
     0
176
     1
 40
1.0
176
     1
 40
1.0
176
     1
  0
VISUALSTYLE
  5
FE
102
{ACAD_REACTORS
330
EF
102
}
330
EF
100
AcDbVisualStyle
  2
Facepattern
 70
    15
177
     3
291
     1
 70
    58
 90
        2
176
     1
 90
        2
176
     1
 90
        1
176
     1
 90
        0
176
     1
 40
0.6
176
     1
 40
30.0
176
     1
 62
     7
420
 16777215
176
     1
 90
        1
176
     1
 90
        4
176
     1
 62
     7
176
     1
 62
   257
176
     1
 90
        1
176
     1
 90
        1
176
     1
 40
1.0
176
     1
 90
        8
176
     1
 62
     7
176
     1
 40
1.0
176
     1
 90
        1
176
     1
 90
        6
176
     1
 90
        2
176
     1
 62
     7
176
     1
 90
        5
176
     1
 90
        0
176
     1
 90
        0
176
     1
290
     0
176
     1
 90
        1
176
     1
 40
0.0
176
     1
 90
        0
176
     1
290
     0
176
     1
290
     1
176
     1
290
     1
176
     1
290
     0
176
     1
290
     0
176
     1
290
     0
176
     1
290
     0
176
     1
290
     0
176
     1
290
     0
176
     1
 90
       50
176
     1
 40
0.0
176
     1
 40
1.0
176
     1
 90
        0
176
     1
 62
    18
420
        0
176
     1
 90
       50
176
     1
 90
        3
176
     1
 62
     5
420
      255
176
     1
290
     0
176
     1
 90
       50
176
     1
 90
       50
176
     1
 90
       50
176
     1
290
     0
176
     1
 90
       50
176
     1
 62
   256
176
     0
 40
1.0
176
     0
 90
        2
176
     1
  1
strokes_ogs.tif
176
     1
290
     0
176
     1
 40
1.0
176
     1
 40
1.0
176
     1
  0
VISUALSTYLE
  5
F0
102
{ACAD_REACTORS
330
EF
102
}
330
EF
100
AcDbVisualStyle
  2
Flat
 70
     0
177
     3
291
     1
 70
    58
 90
        2
176
     1
 90
        1
176
     1
 90
        1
176
     1
 90
        2
176
     1
 40
0.6
176
     1
 40
30.0
176
     1
 62
     7
420
 16777215
176
     1
 90
        0
176
     1
 90
        0
176
     1
 62
     7
176
     1
 62
   257
176
     1
 90
        1
176
     1
 90
        1
176
     1
 40
1.0
176
     1
 90
        8
176
     1
 62
     7
176
     1
 40
1.0
176
     1
 90
        1
176
     1
 90
        6
176
     1
 90
        2
176
     1
 62
     7
176
     1
 90
        5
176
     1
 90
        0
176
     1
 90
        0
176
     1
290
     0
176
     1
 90
       13
176
     1
 40
0.0
176
     1
 90
        0
176
     1
290
     0
176
     1
290
     1
176
     1
290
     1
176
     1
290
     0
176
     1
290
     0
176
     1
290
     0
176
     1
290
     0
176
     1
290
     0
176
     1
290
     0
176
     1
 90
       50
176
     1
 40
0.0
176
     1
 40
1.0
176
     1
 90
        0
176
     1
 62
    18
420
        0
176
     1
 90
       50
176
     1
 90
        3
176
     1
 62
     5
420
      255
176
     1
290
     0
176
     1
 90
       50
176
     1
 90
       50
176
     1
 90
       50
176
     1
290
     0
176
     1
 90
       50
176
     1
 62
   256
176
     0
 40
1.0
176
     0
 90
        2
176
     1
  1
strokes_ogs.tif
176
     1
290
     0
176
     1
 40
1.0
176
     1
 40
1.0
176
     1
  0
VISUALSTYLE
  5
F1
102
{ACAD_REACTORS
330
EF
102
}
330
EF
100
AcDbVisualStyle
  2
FlatWithEdges
 70
     1
177
     3
291
     1
 70
    58
 90
        2
176
     1
 90
        1
176
     1
 90
        1
176
     1
 90
        2
176
     1
 40
0.6
176
     1
 40
30.0
176
     1
 62
     7
420
 16777215
176
     1
 90
        1
176
     1
 90
        0
176
     1
 62
     7
176
     1
 62
   257
176
     1
 90
        1
176
     1
 90
        1
176
     1
 40
1.0
176
     1
 90
        0
176
     1
 62
   257
176
     1
 40
1.0
176
     1
 90
        1
176
     1
 90
        6
176
     1
 90
        2
176
     1
 62
     7
176
     1
 90
        5
176
     1
 90
        0
176
     1
 90
        0
176
     1
290
     0
176
     1
 90
       13
176
     1
 40
0.0
176
     1
 90
        0
176
     1
290
     0
176
     1
290
     1
176
     1
290
     1
176
     1
290
     0
176
     1
290
     0
176
     1
290
     0
176
     1
290
     0
176
     1
290
     0
176
     1
290
     0
176
     1
 90
       50
176
     1
 40
0.0
176
     1
 40
1.0
176
     1
 90
        0
176
     1
 62
    18
420
        0
176
     1
 90
       50
176
     1
 90
        3
176
     1
 62
     5
420
      255
176
     1
290
     0
176
     1
 90
       50
176
     1
 90
       50
176
     1
 90
       50
176
     1
290
     0
176
     1
 90
       50
176
     1
 62
   256
176
     0
 40
1.0
176
     0
 90
        2
176
     1
  1
strokes_ogs.tif
176
     1
290
     0
176
     1
 40
1.0
176
     1
 40
1.0
176
     1
  0
VISUALSTYLE
  5
F2
102
{ACAD_REACTORS
330
EF
102
}
330
EF
100
AcDbVisualStyle
  2
Gouraud
 70
     2
177
     3
291
     1
 70
    58
 90
        2
176
     1
 90
        2
176
     1
 90
        1
176
     1
 90
        2
176
     1
 40
0.6
176
     1
 40
30.0
176
     1
 62
     7
420
 16777215
176
     1
 90
        0
176
     1
 90
        0
176
     1
 62
     7
176
     1
 62
   257
176
     1
 90
        1
176
     1
 90
        1
176
     1
 40
1.0
176
     1
 90
        0
176
     1
 62
     7
176
     1
 40
1.0
176
     1
 90
        1
176
     1
 90
        6
176
     1
 90
        2
176
     1
 62
     7
176
     1
 90
        5
176
     1
 90
        0
176
     1
 90
        0
176
     1
290
     0
176
     1
 90
       13
176
     1
 40
0.0
176
     1
 90
        0
176
     1
290
     0
176
     1
290
     1
176
     1
290
     1
176
     1
290
     0
176
     1
290
     0
176
     1
290
     0
176
     1
290
     0
176
     1
290
     0
176
     1
290
     0
176
     1
 90
       50
176
     1
 40
0.0
176
     1
 40
1.0
176
     1
 90
        0
176
     1
 62
    18
420
        0
176
     1
 90
       50
176
     1
 90
        3
176
     1
 62
     5
420
      255
176
     1
290
     0
176
     1
 90
       50
176
     1
 90
       50
176
     1
 90
       50
176
     1
290
     0
176
     1
 90
       50
176
     1
 62
   256
176
     0
 40
1.0
176
     0
 90
        2
176
     1
  1
strokes_ogs.tif
176
     1
290
     0
176
     1
 40
1.0
176
     1
 40
1.0
176
     1
  0
VISUALSTYLE
  5
F3
102
{ACAD_REACTORS
330
EF
102
}
330
EF
100
AcDbVisualStyle
  2
GouraudWithEdges
 70
     3
177
     3
291
     1
 70
    58
 90
        2
176
     1
 90
        2
176
     1
 90
        1
176
     1
 90
        2
176
     1
 40
0.6
176
     1
 40
30.0
176
     1
 62
     7
420
 16777215
176
     1
 90
        1
176
     1
 90
        0
176
     1
 62
     7
176
     1
 62
   257
176
     1
 90
        1
176
     1
 90
        1
176
     1
 40
1.0
176
     1
 90
        0
176
     1
 62
   257
176
     1
 40
1.0
176
     1
 90
        1
176
     1
 90
        6
176
     1
 90
        2
176
     1
 62
     7
176
     1
 90
        5
176
     1
 90
        0
176
     1
 90
        0
176
     1
290
     0
176
     1
 90
       13
176
     1
 40
0.0
176
     1
 90
        0
176
     1
290
     0
176
     1
290
     1
176
     1
290
     1
176
     1
290
     0
176
     1
290
     0
176
     1
290
     0
176
     1
290
     0
176
     1
290
     0
176
     1
290
     0
176
     1
 90
       50
176
     1
 40
0.0
176
     1
 40
1.0
176
     1
 90
        0
176
     1
 62
    18
420
        0
176
     1
 90
       50
176
     1
 90
        3
176
     1
 62
     5
420
      255
176
     1
290
     0
176
     1
 90
       50
176
     1
 90
       50
176
     1
 90
       50
176
     1
290
     0
176
     1
 90
       50
176
     1
 62
   256
176
     0
 40
1.0
176
     0
 90
        2
176
     1
  1
strokes_ogs.tif
176
     1
290
     0
176
     1
 40
1.0
176
     1
 40
1.0
176
     1
  0
VISUALSTYLE
  5
F7
102
{ACAD_REACTORS
330
EF
102
}
330
EF
100
AcDbVisualStyle
  2
Hidden
 70
     6
177
     3
291
     0
 70
    58
 90
        1
176
     1
 90
        2
176
     1
 90
        2
176
     1
 90
        0
176
     1
 40
0.6
176
     1
 40
30.0
176
     1
 62
     7
420
 16777215
176
     1
 90
        2
176
     1
 90
        2
176
     1
 62
     7
176
     1
 62
   257
176
     1
 90
        2
176
     1
 90
        1
176
     1
 40
40.0
176
     1
 90
        0
176
     1
 62
   257
176
     1
 40
1.0
176
     1
 90
        1
176
     1
 90
        6
176
     1
 90
        2
176
     1
 62
     7
176
     1
 90
        3
176
     1
 90
        0
176
     1
 90
        0
176
     1
290
     0
176
     1
 90
        1
176
     1
 40
0.0
176
     1
 90
        0
176
     1
290
     0
176
     1
290
     1
176
     1
290
     1
176
     1
290
     0
176
     1
290
     0
176
     1
290
     0
176
     1
290
     0
176
     1
290
     0
176
     1
290
     0
176
     1
 90
       50
176
     1
 40
0.0
176
     1
 40
1.0
176
     1
 90
        0
176
     1
 62
    18
420
        0
176
     1
 90
       50
176
     1
 90
        3
176
     1
 62
     5
420
      255
176
     1
290
     0
176
     1
 90
       50
176
     1
 90
       50
176
     1
 90
       50
176
     1
290
     0
176
     1
 90
       50
176
     1
 62
   256
176
     0
 40
1.0
176
     0
 90
        2
176
     1
  1
strokes_ogs.tif
176
     1
290
     0
176
     1
 40
1.0
176
     1
 40
1.0
176
     1
  0
VISUALSTYLE
  5
1E4
102
{ACAD_REACTORS
330
EF
102
}
330
EF
100
AcDbVisualStyle
  2
JitterOff
 70
    20
177
     3
291
     1
 70
    58
 90
        2
176
     0
 90
        2
176
     0
 90
        0
176
     0
 90
        0
176
     0
 40
0.6
176
     0
 40
30.0
176
     0
 62
     7
420
 16777215
176
     0
 90
        1
176
     0
 90
        4
176
     0
 62
     7
176
     0
 62
   257
176
     0
 90
        1
176
     0
 90
        1
176
     0
 40
1.0
176
     0
 90
       10
176
     2
 62
     7
176
     0
 40
1.0
176
     0
 90
        1
176
     0
 90
        6
176
     0
 90
        2
176
     0
 62
     7
176
     0
 90
        5
176
     0
 90
        0
176
     0
 90
        0
176
     0
290
     0
176
     0
 90
        1
176
     0
 40
0.0
176
     0
 90
        0
176
     0
290
     0
176
     1
290
     1
176
     1
290
     1
176
     1
290
     0
176
     1
290
     0
176
     1
290
     0
176
     1
290
     0
176
     1
290
     0
176
     1
290
     0
176
     1
 90
       50
176
     1
 40
0.0
176
     1
 40
1.0
176
     1
 90
        0
176
     1
 62
    18
420
        0
176
     1
 90
       50
176
     1
 90
        3
176
     1
 62
     5
420
      255
176
     1
290
     0
176
     1
 90
       50
176
     1
 90
       50
176
     1
 90
       50
176
     1
290
     0
176
     1
 90
       50
176
     1
 62
   256
176
     0
 40
1.0
176
     0
 90
        2
176
     1
  1
strokes_ogs.tif
176
     1
290
     0
176
     1
 40
1.0
176
     1
 40
1.0
176
     1
  0
VISUALSTYLE
  5
FD
102
{ACAD_REACTORS
330
EF
102
}
330
EF
100
AcDbVisualStyle
  2
Linepattern
 70
    14
177
     3
291
     1
 70
    58
 90
        2
176
     1
 90
        2
176
     1
 90
        1
176
     1
 90
        0
176
     1
 40
0.6
176
     1
 40
30.0
176
     1
 62
     7
420
 16777215
176
     1
 90
        1
176
     1
 90
        4
176
     1
 62
     7
176
     1
 62
   257
176
     1
 90
        7
176
     1
 90
        7
176
     1
 40
1.0
176
     1
 90
        8
176
     1
 62
     7
176
     1
 40
1.0
176
     1
 90
        1
176
     1
 90
        6
176
     1
 90
        2
176
     1
 62
     7
176
     1
 90
        5
176
     1
 90
        0
176
     1
 90
        0
176
     1
290
     0
176
     1
 90
        1
176
     1
 40
0.0
176
     1
 90
        0
176
     1
290
     0
176
     1
290
     1
176
     1
290
     1
176
     1
290
     0
176
     1
290
     0
176
     1
290
     0
176
     1
290
     0
176
     1
290
     0
176
     1
290
     0
176
     1
 90
       50
176
     1
 40
0.0
176
     1
 40
1.0
176
     1
 90
        0
176
     1
 62
    18
420
        0
176
     1
 90
       50
176
     1
 90
        3
176
     1
 62
     5
420
      255
176
     1
290
     0
176
     1
 90
       50
176
     1
 90
       50
176
     1
 90
       50
176
     1
290
     0
176
     1
 90
       50
176
     1
 62
   256
176
     0
 40
1.0
176
     0
 90
        2
176
     1
  1
strokes_ogs.tif
176
     1
290
     0
176
     1
 40
1.0
176
     1
 40
1.0
176
     1
  0
VISUALSTYLE
  5
1E5
102
{ACAD_REACTORS
330
EF
102
}
330
EF
100
AcDbVisualStyle
  2
OverhangOff
 70
    21
177
     3
291
     1
 70
    58
 90
        2
176
     0
 90
        2
176
     0
 90
        0
176
     0
 90
        0
176
     0
 40
0.6
176
     0
 40
30.0
176
     0
 62
     7
420
 16777215
176
     0
 90
        1
176
     0
 90
        4
176
     0
 62
     7
176
     0
 62
   257
176
     0
 90
        1
176
     0
 90
        1
176
     0
 40
1.0
176
     0
 90
        9
176
     2
 62
     7
176
     0
 40
1.0
176
     0
 90
        1
176
     0
 90
        6
176
     0
 90
        2
176
     0
 62
     7
176
     0
 90
        5
176
     0
 90
        0
176
     0
 90
        0
176
     0
290
     0
176
     0
 90
        1
176
     0
 40
0.0
176
     0
 90
        0
176
     0
290
     0
176
     1
290
     1
176
     1
290
     1
176
     1
290
     0
176
     1
290
     0
176
     1
290
     0
176
     1
290
     0
176
     1
290
     0
176
     1
290
     0
176
     1
 90
       50
176
     1
 40
0.0
176
     1
 40
1.0
176
     1
 90
        0
176
     1
 62
    18
420
        0
176
     1
 90
       50
176
     1
 90
        3
176
     1
 62
     5
420
      255
176
     1
290
     0
176
     1
 90
       50
176
     1
 90
       50
176
     1
 90
       50
176
     1
290
     0
176
     1
 90
       50
176
     1
 62
   256
176
     0
 40
1.0
176
     0
 90
        2
176
     1
  1
strokes_ogs.tif
176
     1
290
     0
176
     1
 40
1.0
176
     1
 40
1.0
176
     1
  0
VISUALSTYLE
  5
F9
102
{ACAD_REACTORS
330
EF
102
}
330
EF
100
AcDbVisualStyle
  2
Realistic
 70
     8
177
     3
291
     0
 70
    58
 90
        2
176
     1
 90
        3
176
     1
 90
        0
176
     1
 90
        2
176
     1
 40
0.6
176
     1
 40
30.0
176
     1
 62
     7
420
 16777215
176
     1
 90
        0
176
     1
 90
        0
176
     1
 62
     7
176
     1
 62
   257
176
     1
 90
        1
176
     1
 90
        1
176
     1
 40
1.0
176
     1
 90
        8
176
     1
 62
   257
176
     1
 40
1.0
176
     1
 90
        1
176
     1
 90
        6
176
     1
 90
        2
176
     1
 62
     7
176
     1
 90
        3
176
     1
 90
        0
176
     1
 90
        0
176
     1
290
     0
176
     1
 90
       13
176
     1
 40
0.0
176
     1
 90
        0
176
     1
290
     0
176
     1
290
     1
176
     1
290
     1
176
     1
290
     0
176
     1
290
     0
176
     1
290
     0
176
     1
290
     0
176
     1
290
     0
176
     1
290
     0
176
     1
 90
       50
176
     1
 40
0.0
176
     1
 40
1.0
176
     1
 90
        0
176
     1
 62
    18
420
        0
176
     1
 90
       50
176
     1
 90
        3
176
     1
 62
     5
420
      255
176
     1
290
     0
176
     1
 90
       50
176
     1
 90
       50
176
     1
 90
       50
176
     1
290
     0
176
     1
 90
       50
176
     1
 62
   256
176
     0
 40
1.0
176
     0
 90
        2
176
     1
  1
strokes_ogs.tif
176
     1
290
     0
176
     1
 40
1.0
176
     1
 40
1.0
176
     1
  0
VISUALSTYLE
  5
1F3
102
{ACAD_REACTORS
330
EF
102
}
330
EF
100
AcDbVisualStyle
  2
Shaded
 70
    27
177
     3
291
     0
 70
    58
 90
        2
176
     1
 90
        2
176
     1
 90
        1
176
     1
 90
        2
176
     1
 40
0.6
176
     1
 40
30.0
176
     1
 62
     7
420
 16777215
176
     1
 90
        0
176
     1
 90
        4
176
     1
 62
     7
176
     1
 62
   257
176
     1
 90
        1
176
     1
 90
        1
176
     1
 40
1.0
176
     1
 90
        8
176
     1
 62
   257
176
     1
 40
1.0
176
     1
 90
        1
176
     1
 90
        6
176
     1
 90
        2
176
     1
 62
     8
420
  7895160
176
     1
 90
        3
176
     1
 90
        0
176
     1
 90
        0
176
     1
290
     0
176
     1
 90
        5
176
     1
 40
0.0
176
     1
 90
        0
176
     1
290
     0
176
     1
290
     1
176
     1
290
     1
176
     1
290
     0
176
     1
290
     0
176
     1
290
     0
176
     1
290
     0
176
     1
290
     0
176
     1
290
     0
176
     1
 90
       50
176
     1
 40
0.0
176
     1
 40
1.0
176
     1
 90
        0
176
     1
 62
    18
420
        0
176
     1
 90
       50
176
     1
 90
        3
176
     1
 62
     5
420
      255
176
     1
290
     0
176
     1
 90
       50
176
     1
 90
       50
176
     1
 90
       50
176
     1
290
     0
176
     1
 90
       50
176
     1
 62
   256
176
     0
 40
1.0
176
     0
 90
        2
176
     1
  1
strokes_ogs.tif
176
     1
290
     0
176
     1
 40
1.0
176
     1
 40
1.0
176
     1
  0
VISUALSTYLE
  5
1F2
102
{ACAD_REACTORS
330
EF
102
}
330
EF
100
AcDbVisualStyle
  2
Shaded with edges
 70
    26
177
     3
291
     0
 70
    58
 90
        2
176
     1
 90
        2
176
     1
 90
        1
176
     1
 90
        2
176
     1
 40
0.6
176
     1
 40
30.0
176
     1
 62
     7
420
 16777215
176
     1
 90
        1
176
     1
 90
       10
176
     1
 62
     7
176
     1
 62
   257
176
     1
 90
        2
176
     1
 90
        1
176
     1
 40
1.0
176
     1
 90
        8
176
     1
 62
   257
176
     1
 40
1.0
176
     1
 90
        1
176
     1
 90
        6
176
     1
 90
        2
176
     1
 62
     7
176
     1
 90
        3
176
     1
 90
        0
176
     1
 90
        0
176
     1
290
     0
176
     1
 90
        5
176
     1
 40
0.0
176
     1
 90
        0
176
     1
290
     0
176
     1
290
     1
176
     1
290
     1
176
     1
290
     0
176
     1
290
     0
176
     1
290
     0
176
     1
290
     0
176
     1
290
     0
176
     1
290
     0
176
     1
 90
       50
176
     1
 40
0.0
176
     1
 40
1.0
176
     1
 90
        0
176
     1
 62
    18
420
        0
176
     1
 90
       50
176
     1
 90
        3
176
     1
 62
     5
420
      255
176
     1
290
     0
176
     1
 90
       50
176
     1
 90
       50
176
     1
 90
       50
176
     1
290
     0
176
     1
 90
       50
176
     1
 62
   256
176
     0
 40
1.0
176
     0
 90
        2
176
     1
  1
strokes_ogs.tif
176
     1
290
     0
176
     1
 40
1.0
176
     1
 40
1.0
176
     1
  0
VISUALSTYLE
  5
1EF
102
{ACAD_REACTORS
330
EF
102
}
330
EF
100
AcDbVisualStyle
  2
Shades of Gray
 70
    23
177
     3
291
     0
 70
    58
 90
        2
176
     1
 90
        2
176
     1
 90
        3
176
     1
 90
        0
176
     1
 40
0.6
176
     1
 40
30.0
176
     1
 62
     7
420
 16777215
176
     1
 90
        2
176
     1
 90
        2
176
     1
 62
     7
176
     1
 62
     7
176
     1
 90
        1
176
     1
 90
        1
176
     1
 40
40.0
176
     1
 90
        8
176
     1
 62
     7
176
     1
 40
1.0
176
     1
 90
        1
176
     1
 90
        6
176
     1
 90
        2
176
     1
 62
     7
176
     1
 90
        3
176
     1
 90
        0
176
     1
 90
        0
176
     1
290
     0
176
     1
 90
        1
176
     1
 40
0.0
176
     1
 90
        0
176
     1
290
     0
176
     1
290
     1
176
     1
290
     1
176
     1
290
     0
176
     1
290
     0
176
     1
290
     0
176
     1
290
     0
176
     1
290
     0
176
     1
290
     0
176
     1
 90
       50
176
     1
 40
0.0
176
     1
 40
1.0
176
     1
 90
        0
176
     1
 62
    18
420
        0
176
     1
 90
       50
176
     1
 90
        3
176
     1
 62
     5
420
      255
176
     1
290
     0
176
     1
 90
       50
176
     1
 90
       50
176
     1
 90
       50
176
     1
290
     0
176
     1
 90
       50
176
     1
 62
   256
176
     0
 40
1.0
176
     0
 90
        2
176
     1
  1
strokes_ogs.tif
176
     1
290
     0
176
     1
 40
1.0
176
     1
 40
1.0
176
     1
  0
VISUALSTYLE
  5
1F0
102
{ACAD_REACTORS
330
EF
102
}
330
EF
100
AcDbVisualStyle
  2
Sketchy
 70
    24
177
     3
291
     0
 70
    58
 90
        1
176
     1
 90
        2
176
     1
 90
        2
176
     1
 90
        0
176
     1
 40
0.6
176
     1
 40
30.0
176
     1
 62
     7
420
 16777215
176
     1
 90
        2
176
     1
 90
        2
176
     1
 62
     7
176
     1
 62
     7
176
     1
 90
        1
176
     1
 90
        1
176
     1
 40
40.0
176
     1
 90
       11
176
     1
 62
     7
176
     1
 40
1.0
176
     1
 90
        1
176
     1
 90
        6
176
     1
 90
        2
176
     1
 62
     7
176
     1
 90
        6
176
     1
 90
        0
176
     1
 90
        0
176
     1
290
     0
176
     1
 90
        1
176
     1
 40
0.0
176
     1
 90
        0
176
     1
290
     0
176
     1
290
     1
176
     1
290
     1
176
     1
290
     0
176
     1
290
     0
176
     1
290
     0
176
     1
290
     0
176
     1
290
     0
176
     1
290
     0
176
     1
 90
       50
176
     1
 40
0.0
176
     1
 40
1.0
176
     1
 90
        0
176
     1
 62
    18
420
        0
176
     1
 90
       50
176
     1
 90
        3
176
     1
 62
     5
420
      255
176
     1
290
     0
176
     1
 90
       50
176
     1
 90
       50
176
     1
 90
       50
176
     1
290
     0
176
     1
 90
       50
176
     1
 62
   256
176
     0
 40
1.0
176
     0
 90
        2
176
     1
  1
strokes_ogs.tif
176
     1
290
     0
176
     1
 40
1.0
176
     1
 40
1.0
176
     1
  0
VISUALSTYLE
  5
FC
102
{ACAD_REACTORS
330
EF
102
}
330
EF
100
AcDbVisualStyle
  2
Thicken
 70
    13
177
     3
291
     1
 70
    58
 90
        2
176
     1
 90
        2
176
     1
 90
        1
176
     1
 90
        0
176
     1
 40
0.6
176
     1
 40
30.0
176
     1
 62
     7
420
 16777215
176
     1
 90
        1
176
     1
 90
        4
176
     1
 62
     7
176
     1
 62
   257
176
     1
 90
        1
176
     1
 90
        1
176
     1
 40
1.0
176
     1
 90
       12
176
     1
 62
     7
176
     1
 40
1.0
176
     1
 90
        1
176
     1
 90
        6
176
     1
 90
        2
176
     1
 62
     7
176
     1
 90
        5
176
     1
 90
        0
176
     1
 90
        0
176
     1
290
     0
176
     1
 90
        1
176
     1
 40
0.0
176
     1
 90
        0
176
     1
290
     0
176
     1
290
     1
176
     1
290
     1
176
     1
290
     0
176
     1
290
     0
176
     1
290
     0
176
     1
290
     0
176
     1
290
     0
176
     1
290
     0
176
     1
 90
       50
176
     1
 40
0.0
176
     1
 40
1.0
176
     1
 90
        0
176
     1
 62
    18
420
        0
176
     1
 90
       50
176
     1
 90
        3
176
     1
 62
     5
420
      255
176
     1
290
     0
176
     1
 90
       50
176
     1
 90
       50
176
     1
 90
       50
176
     1
290
     0
176
     1
 90
       50
176
     1
 62
   256
176
     0
 40
1.0
176
     0
 90
        2
176
     1
  1
strokes_ogs.tif
176
     1
290
     0
176
     1
 40
1.0
176
     1
 40
1.0
176
     1
  0
VISUALSTYLE
  5
F6
102
{ACAD_REACTORS
330
EF
102
}
330
EF
100
AcDbVisualStyle
  2
Wireframe
 70
     5
177
     3
291
     0
 70
    58
 90
        0
176
     1
 90
        2
176
     1
 90
        0
176
     1
 90
        0
176
     1
 40
0.6
176
     1
 40
30.0
176
     1
 62
     7
420
 16777215
176
     1
 90
        1
176
     1
 90
        4
176
     1
 62
     7
176
     1
 62
   257
176
     1
 90
        1
176
     1
 90
        1
176
     1
 40
1.0
176
     1
 90
        0
176
     1
 62
   257
176
     1
 40
1.0
176
     1
 90
        1
176
     1
 90
        6
176
     1
 90
        2
176
     1
 62
     7
176
     1
 90
        3
176
     1
 90
        0
176
     1
 90
        0
176
     1
290
     0
176
     1
 90
        1
176
     1
 40
0.0
176
     1
 90
        0
176
     1
290
     0
176
     1
290
     1
176
     1
290
     1
176
     1
290
     0
176
     1
290
     0
176
     1
290
     0
176
     1
290
     0
176
     1
290
     0
176
     1
290
     0
176
     1
 90
       50
176
     1
 40
0.0
176
     1
 40
1.0
176
     1
 90
        0
176
     1
 62
    18
420
        0
176
     1
 90
       50
176
     1
 90
        3
176
     1
 62
     5
420
      255
176
     1
290
     0
176
     1
 90
       50
176
     1
 90
       50
176
     1
 90
       50
176
     1
290
     0
176
     1
 90
       50
176
     1
 62
   256
176
     0
 40
1.0
176
     0
 90
        2
176
     1
  1
strokes_ogs.tif
176
     1
290
     0
176
     1
 40
1.0
176
     1
 40
1.0
176
     1
  0
VISUALSTYLE
  5
1F1
102
{ACAD_REACTORS
330
EF
102
}
330
EF
100
AcDbVisualStyle
  2
X-Ray
 70
    25
177
     3
291
     0
 70
    58
 90
        2
176
     1
 90
        2
176
     1
 90
        1
176
     1
 90
        1
176
     1
 40
0.5
176
     1
 40
30.0
176
     1
 62
     7
420
 16777215
176
     1
 90
        1
176
     1
 90
        0
176
     1
 62
     7
176
     1
 62
   257
176
     1
 90
        1
176
     1
 90
        1
176
     1
 40
1.0
176
     1
 90
        8
176
     1
 62
     7
176
     1
 40
1.0
176
     1
 90
        1
176
     1
 90
        6
176
     1
 90
        2
176
     1
 62
     7
176
     1
 90
        3
176
     1
 90
        0
176
     1
 90
        0
176
     1
290
     0
176
     1
 90
       13
176
     1
 40
0.0
176
     1
 90
        0
176
     1
290
     0
176
     1
290
     1
176
     1
290
     1
176
     1
290
     0
176
     1
290
     0
176
     1
290
     0
176
     1
290
     0
176
     1
290
     0
176
     1
290
     0
176
     1
 90
       50
176
     1
 40
0.0
176
     1
 40
1.0
176
     1
 90
        0
176
     1
 62
    18
420
        0
176
     1
 90
       50
176
     1
 90
        3
176
     1
 62
     5
420
      255
176
     1
290
     0
176
     1
 90
       50
176
     1
 90
       50
176
     1
 90
       50
176
     1
290
     0
176
     1
 90
       50
176
     1
 62
   256
176
     0
 40
1.0
176
     0
 90
        2
176
     1
  1
strokes_ogs.tif
176
     1
290
     0
176
     1
 40
1.0
176
     1
 40
1.0
176
     1
  0
DICTIONARYVAR
  5
4B84
102
{ACAD_REACTORS
330
5E
102
}
330
5E
100
DictionaryVariables
280
     0
  1
1
  0
DICTIONARYVAR
  5
146
102
{ACAD_REACTORS
330
5E
102
}
330
5E
100
DictionaryVariables
280
     0
  1
1:1
  0
DICTIONARYVAR
  5
145
102
{ACAD_REACTORS
330
5E
102
}
330
5E
100
DictionaryVariables
280
     0
  1
STANDARD
  0
DICTIONARYVAR
  5
84
102
{ACAD_REACTORS
330
5E
102
}
330
5E
100
DictionaryVariables
280
     0
  1
STANDARD
  0
DICTIONARYVAR
  5
3363
102
{ACAD_REACTORS
330
5E
102
}
330
5E
100
DictionaryVariables
280
     0
  1
Metric50
  0
DICTIONARYVAR
  5
3364
102
{ACAD_REACTORS
330
5E
102
}
330
5E
100
DictionaryVariables
280
     0
  1
Metric50
  0
DICTIONARYVAR
  5
5F
102
{ACAD_REACTORS
330
5E
102
}
330
5E
100
DictionaryVariables
280
     0
  1
2
  0
DICTIONARYVAR
  5
1EE2
102
{ACAD_REACTORS
330
5E
102
}
330
5E
100
DictionaryVariables
280
     0
  1
2
  0
DICTIONARYVAR
  5
63
102
{ACAD_REACTORS
330
5E
102
}
330
5E
100
DictionaryVariables
280
     0
  1
1
  0
DICTIONARYVAR
  5
8208
102
{ACAD_REACTORS
330
5E
102
}
330
5E
100
DictionaryVariables
280
     0
  1
Arcering
  0
DICTIONARYVAR
  5
8209
102
{ACAD_REACTORS
330
5E
102
}
330
5E
100
DictionaryVariables
280
     0
  1
ByLayer
  0
DICTIONARYVAR
  5
1AE
102
{ACAD_REACTORS
330
5E
102
}
330
5E
100
DictionaryVariables
280
     0
  1
0
  0
DICTIONARYVAR
  5
1AF
102
{ACAD_REACTORS
330
5E
102
}
330
5E
100
DictionaryVariables
280
     0
  1
0
  0
XRECORD
  5
6727
102
{ACAD_REACTORS
330
6726
102
}
330
6726
100
AcDbXrecord
280
     1
 40
0.0
  0
ACDBVIEWREPSTANDARD
  5
67B5
102
{ACAD_REACTORS
330
67B4
102
}
330
67B4
100
AcDbViewRepStandard
 90
      100
 90
        0
 90
        1
 90
        1
 90
        1
 90
        1
  0
DICTIONARY
  5
117EA
102
{ACAD_REACTORS
330
117E9
102
}
330
117E9
100
AcDbDictionary
281
     1
  3
*A1
350
117EB
  0
DICTIONARY
  5
11867
102
{ACAD_REACTORS
330
11866
102
}
330
11866
100
AcDbDictionary
281
     1
  3
*A1
350
11868
  0
DICTIONARY
  5
11A2A
102
{ACAD_REACTORS
330
11A29
102
}
330
11A29
100
AcDbDictionary
281
     1
  3
*A1
350
11A2B
  0
DICTIONARY
  5
1D89A
102
{ACAD_REACTORS
330
1D899
102
}
330
1D899
100
AcDbDictionary
281
     1
  3
*A1
350
1D89B
  0
DICTIONARY
  5
1D8D9
102
{ACAD_REACTORS
330
1D8D8
102
}
330
1D8D8
100
AcDbDictionary
281
     1
  3
*A1
350
1D8DA
  0
DICTIONARY
  5
1D8FF
102
{ACAD_REACTORS
330
1D8FE
102
}
330
1D8FE
100
AcDbDictionary
281
     1
  3
*A1
350
1D900
  0
DICTIONARY
  5
1F822
102
{ACAD_REACTORS
330
1F821
102
}
330
1F821
100
AcDbDictionary
281
     1
  3
*A1
350
1F823
  0
DICTIONARY
  5
1F827
102
{ACAD_REACTORS
330
1F826
102
}
330
1F826
100
AcDbDictionary
281
     1
  3
*A1
350
1F828
  0
DICTIONARY
  5
1F928
102
{ACAD_REACTORS
330
1F927
102
}
330
1F927
100
AcDbDictionary
281
     1
  3
*A1
350
1F929
  0
DICTIONARY
  5
205
330
22
100
AcDbDictionary
280
     1
281
     1
  3
AcPublish_PlotSettingsOverride
360
1EE1
  0
DICTIONARY
  5
1F9
330
ED
100
AcDbDictionary
280
     1
281
     1
  3
FBXASSET
360
1FA
  0
DICTIONARY
  5
1F7
330
EC
100
AcDbDictionary
280
     1
281
     1
  3
FBXASSET
360
1F8
  0
DICTIONARY
  5
173
330
EE
100
AcDbDictionary
280
     1
281
     1
  3
BUMPTILE
360
175
  3
DIFFUSETILE
360
174
  3
FBXASSET
360
1FB
  3
OPACITYTILE
360
176
  3
REFLECTIONTILE
360
177
  0
DICTIONARY
  5
162
330
7F
100
AcDbDictionary
280
     1
281
     1
  3
ACAD_ROUNDTRIP_2008_TABLESTYLE_CELLSTYLEMAP
360
23FFE
  0
ACDB_ALDIMOBJECTCONTEXTDATA_CLASS
  5
117EB
102
{ACAD_REACTORS
330
117EA
102
}
330
117EA
100
AcDbObjectContextData
 70
     4
290
     1
100
AcDbAnnotScaleObjectContextData
340
10D
100
AcDbDimensionObjectContextData
  2
*D1
293
     0
 10
14561.65091660421
 20
7599.966055017033
294
     0
140
0.0
298
     0
291
     0
 70
     0
292
     0
 71
     0
280
     0
295
     0
296
     0
297
     0
100
AcDbAlignedDimensionObjectContextData
 11
14884.10011316535
 21
7599.966055017033
 31
0.0
  0
ACDB_ALDIMOBJECTCONTEXTDATA_CLASS
  5
11868
102
{ACAD_REACTORS
330
11867
102
}
330
11867
100
AcDbObjectContextData
 70
     4
290
     1
100
AcDbAnnotScaleObjectContextData
340
10D
100
AcDbDimensionObjectContextData
  2
*D2
293
     0
 10
14579.1201472309
 20
7630.727134687145
294
     1
140
0.0
298
     0
291
     0
 70
     0
292
     0
 71
     0
280
     0
295
     0
296
     0
297
     0
100
AcDbAlignedDimensionObjectContextData
 11
14884.10011316535
 21
7630.727134687145
 31
0.0
  0
ACDB_ALDIMOBJECTCONTEXTDATA_CLASS
  5
11A2B
102
{ACAD_REACTORS
330
11A2A
102
}
330
11A2A
100
AcDbObjectContextData
 70
     4
290
     1
100
AcDbAnnotScaleObjectContextData
340
10D
100
AcDbDimensionObjectContextData
  2
*D3
293
     0
 10
14946.54975457228
 20
7688.727131840166
294
     0
140
0.0
298
     0
291
     0
 70
     0
292
     0
 71
     2
280
    16
295
     0
296
     0
297
     0
100
AcDbAlignedDimensionObjectContextData
 11
14919.52934839683
 21
7696.727031840163
 31
0.0
1001
ACAD
1000
DSTYLE
1002
{
1070
   279
1070
     2
1002
}
  0
ACDB_ALDIMOBJECTCONTEXTDATA_CLASS
  5
1D89B
102
{ACAD_REACTORS
330
1D89A
102
}
330
1D89A
100
AcDbObjectContextData
 70
     4
290
     1
100
AcDbAnnotScaleObjectContextData
340
10D
100
AcDbDimensionObjectContextData
  2
*D6
293
     0
 10
14774.1391491846
 20
7735.491945697311
294
     0
140
0.0
298
     0
291
     0
 70
     0
292
     0
 71
     0
280
     0
295
     0
296
     0
297
     0
100
AcDbAlignedDimensionObjectContextData
 11
14755.13920969279
 21
7735.491945697311
 31
0.0
  0
ACDB_ALDIMOBJECTCONTEXTDATA_CLASS
  5
1D8DA
102
{ACAD_REACTORS
330
1D8D9
102
}
330
1D8D9
100
AcDbObjectContextData
 70
     4
290
     1
100
AcDbAnnotScaleObjectContextData
340
10D
100
AcDbDimensionObjectContextData
  2
*D7
293
     0
 10
14806.12076365151
 20
7647.956628931523
294
     0
140
0.0
298
     0
291
     0
 70
     0
292
     0
 71
     0
280
     0
295
     0
296
     0
297
     0
100
AcDbAlignedDimensionObjectContextData
 11
14789.64031365151
 21
7647.956628931523
 31
0.0
  0
ACDB_ALDIMOBJECTCONTEXTDATA_CLASS
  5
1D900
102
{ACAD_REACTORS
330
1D8FF
102
}
330
1D8FF
100
AcDbObjectContextData
 70
     4
290
     1
100
AcDbAnnotScaleObjectContextData
340
10D
100
AcDbDimensionObjectContextData
  2
*D8
293
     0
 10
14882.95439032455
 20
7735.009128444963
294
     0
140
0.0
298
     0
291
     0
 70
     0
292
     0
 71
     0
280
     0
295
     0
296
     0
297
     0
100
AcDbAlignedDimensionObjectContextData
 11
14839.24361269836
 21
7696.48013516785
 31
0.0
  0
ACDB_ALDIMOBJECTCONTEXTDATA_CLASS
  5
1F823
102
{ACAD_REACTORS
330
1F822
102
}
330
1F822
100
AcDbObjectContextData
 70
     4
290
     1
100
AcDbAnnotScaleObjectContextData
340
10D
100
AcDbDimensionObjectContextData
  2
*D9
293
     0
 10
14766.65000981916
 20
8062.356179052818
294
     0
140
0.0
298
     0
291
     0
 70
     0
292
     0
 71
     0
280
     0
295
     0
296
     0
297
     0
100
AcDbAlignedDimensionObjectContextData
 11
15342.40074179075
 21
8062.356179052818
 31
0.0
  0
ACDB_ALDIMOBJECTCONTEXTDATA_CLASS
  5
1F828
102
{ACAD_REACTORS
330
1F827
102
}
330
1F827
100
AcDbObjectContextData
 70
     4
290
     1
100
AcDbAnnotScaleObjectContextData
340
10D
100
AcDbDimensionObjectContextData
  2
*D10
293
     0
 10
14692.40074179075
 20
8025.367910650732
294
     1
140
0.0
298
     0
291
     0
 70
     0
292
     0
 71
     0
280
     0
295
     0
296
     0
297
     0
100
AcDbAlignedDimensionObjectContextData
 11
15342.40074179075
 21
8025.367910650732
 31
0.0
  0
ACDB_ALDIMOBJECTCONTEXTDATA_CLASS
  5
1F929
102
{ACAD_REACTORS
330
1F928
102
}
330
1F928
100
AcDbObjectContextData
 70
     4
290
     1
100
AcDbAnnotScaleObjectContextData
340
10D
100
AcDbDimensionObjectContextData
  2
*D11
293
     0
 10
15425.52309788105
 20
8427.356241297292
294
     1
140
0.0
298
     0
291
     0
 70
     0
292
     0
 71
     0
280
     0
295
     0
296
     0
297
     0
100
AcDbAlignedDimensionObjectContextData
 11
15425.52309788105
 21
8112.356179052815
 31
0.0
  0
PLOTSETTINGS
  5
1EE1
102
{ACAD_REACTORS
330
205
102
}
330
205
100
AcDbPlotSettings
  1

  2
none_device
  4
ANSI_A_(8.50_x_11.00_Inches)
  6

 40
7.5
 41
20.0
 42
7.5
 43
20.0
 44
210.0
 45
297.0
 46
11.54999923706054
 47
-13.65000009536743
 48
-6498.015071005728
 49
-2421.968051514996
140
3005.982512870272
141
7948.683498096166
142
1.0
143
48.73844914808205
 70
 11952
 72
     1
 73
     0
 74
     4
  7

 75
     0
147
0.0205176819837189
 76
     0
 77
     2
 78
   300
148
6498.015071005728
149
2421.968051514996
1001
ACAD_PSEXT
1000
None
1000
None
1000
Not applicable
1000
The layout will not be plotted unless a new plotter configuration name is selected.
1070
     0
  0
XRECORD
  5
1FA
102
{ACAD_REACTORS
330
1F9
102
}
330
1F9
100
AcDbXrecord
280
     1
 70
     1
 90
429727718
  1
D62C5603-E3A1-4AEA-B7FB-FE5D8D0755AF
310
504B03040A0000080000CC70623B3DEE336E79000000790000001B0000006175746F6465736B2D64657369676E2D7061636B6167652E786D6C3C3F786D6C2076657273696F6E3D22312E302220656E636F64696E673D227574662D3822203F3E3C666F726D6174733E3C666F726D61743E687474703A2F2F736368656D612E
310
6175746F6465736B2E636F6D2F64657369676E2D7061636B6167652F323030393C2F666F726D61743E3C2F666F726D6174733E504B0304140006080800CC70623BD486FD9CA0000000F4000000130000005B436F6E74656E745F54797065735D2E786D6C7D8EC10E82300C865F65E91D8A1E8C310C0EEA1BF002731658846E
310
D98AC1B77784ABF1D8FE5FBFBF75BBCE937A534CCEB38643598122B6FEE978D0B0485F9C41B54DDD7D022595594E1A469170414C76A4D9A4D207E29CF43ECE46F218070CC6BECC4078ACAA135ACF422C856C0E68EA1BF5669944DDD7BCDE7B1F8E415D77AECB980613C2E4AC91FC167A2B244592486606FC29C8FD7F045B9A
310
EF7053A7E60B504B0304140006080800CC70623B853B8169EB0000007C01000008000000636F72652E786D6C8D90416EC3201045AF62CDB6C206821CC7C244919D9CA01740401C94182C03558F5F9C3852BBEB6A467FFE9B197D7EFC9E1EC5975982F5AE035262288C535E5B377690E21535501C055FBC8FBF6C503839990E
310
5619041F179FE64D52DE45E362569DD7661365082642A11EB9E920A89B99642953CC8E702F67A9EE7234257977194EC9EAE275C4EABCCF5EAD5940D4AC6F0E35A568B8F43562CD7046CD199FD07E60174276A7BE677B5EADB0E0D14EEFFB6A31321A0D82627C4084204C3F096B71DD52F6819B16635EADF63F509AF53FA164
310
5DDCD1EDDD17164090FCC8732078B56691CB33A85CD7DCC40F504B0304140006080800CC70623B55019EA25F0000007C00000007000000636E782E786D6C4DCB3B0E80201045D1AD90E915ED2CF8AC45050C11660C8261F98AB1B07AC9C97D42D718D865D3E909258CFD00CCE24AC6E326A164D74DC0B4128928FF32603847
310
2BA13128B1252AC747C6BAB984FC68F0B87FE8960A5C09FE86CFB69FBA01504B0304140006080800CC70623BDBABAAF470010000D40300000C0000006662782F636F72652E786D6CC553D16E823014FD95A6AF4B694182CC941A83FA05FB810A9511A125A5257EFE2E82712ECEB8A7F100CD39F7F69E734AF9FADC366850B6
310
AF8DCE7018308C942E4C59EB2AC3DE1D498AD15A706B8CFB56869196ADCAF00863C12B6B7C374385D14E6907A836A59A41D9F7CA615434B0C8705F7CAA5606D23BA8E84F41278B93AC54100640439DE0BDB320004D43C63716C7C399D30917DCFBBA9CD9BA8469F5B156168B24CED3F7248AC8769F27244EB73B92EED8862C
310
B7F13E0C179B3C8F979C8ECD82BBBABDAA2BAC924E9558448CBD9330242CFA08E3154B5651FCC6D215639C8EE5774DBE2B5F6CF2B5768B68963BB5F5588420E442FC700B1139D4CB01F450C1E918227C2E09DF070D8140C84E1E9AAB8F1340832A9CB13130A5F1376A908D57309505ECF2A0DF179C4E9D30F5B239B87E3823
310
7A79C6F31DE1A8A5AEC08474B03C7837EAE4938639B44E5932B833D2C6B6B279CDC613877FA26EE21F4A2A4C63EC7F29A2F301D1F9F7A0E37D145F504B0304140006080800CC70623B9C113CC27E0000009D0000000B0000006662782F636E782E786D6C4DCCDF0A83201C86E15B91DFB94BFB330DD428C8FB886521330DA7
310
6397BF1A1DECE883878F57749FCDA1B7892F1BBC047A23808C7F84D9FA55424E0BE6803A256208E9EF06C84F9B91703228B1C690F78B66B34CD9A5439DF5CF0BFBF65E35BCA1B8D6A5C6F540381E886698B5741C695F9503EBA150A2F8958E3DC3EA0B504B0304140006080800CC70623B7DF2F77C2A010000120200003100
310
00006662782F41393633353835312D344632462D344230382D423046372D3739314545314133324237412F636F72652E786D6C8D51DB8EC22014FC15C2939B0D2DB4B45643319AE817EC0F6041255A68B86CFCFC856D4D76DF7CE190393373060EDB3DC707F856CE6B6B7A480A0C81328395DA5C7B18C3057510EC3873D686
310
3F34088C18550F330C39BB3A1BA7051AAC09CA84841A2BD5020AEF55806078A44B0FFD7053A328440C89E1EFC52486BBB8AA8214A99D789CF9E05200300FC927E4FB4D5B375D43103D5527440FB843077C5AA3F5861C8F645F5787F59E95B390B318B55CE45AA638FAA2957BD7248B390B7A7CC51F9C124149C82B8C378810
310
84AB2F42B7B8DD56F413775B8C5999E9FF4471926F8AA236A1AE96B8B3CC434E5839373893369E1FAF30EA395917409EB7F26AF8801C171837A4A6AC9C89E9F9C9B1A58BA30FD6A5EF5DDDCF894B9AD9B6A59C957943A9FCAE2FD5BC4DFE03504B0304140006080800CC70623BAD7543B64E01000033030000300000006662
310
782F41393633353835312D344632462D344230382D423046372D3739314545314133324237412F636E782E786D6CD593CD6EC32010845F0571AD6CE3D48AD20813A9873E410FBD12D82434182C7EAAE6EDBB2424CD25871E7B41D6EC30B3FA84F9E67BB2E40B4234DE8DB46F1925E094D7C6ED479AD3AE5951B2113C789FEE
310
6C943839C1488B4C05DF079FE72A69D8C96C13AAD6B8631503449F83828872B949AC57D26200B826A308D316B4064D6E46FCDA41C05550DC9E483A00797BFD207EFB092A45DE9514C1BBD22178396BD39D891265658C238DEA00936C654E5E433CB65A26D9F6EDB5EBC14EBF49A45CB856E66048291F6939A9A81BB5C89177
310
38143CA680F4AA299D66A042CEB3354A2684DC9D8D178FE0D9B8B41CAAD720F880EE7EF93C0C18769E099ECC04D5A102C8049A8A05632F4DDF376CF1DE0F6BB65C2F8627B65A33C6BB62177CEBBDAD973006829F89F22E814B54F4BC2BE347F8AA8F681390B50FA73F804400B5F542E796F19FF974E7F78DB802FE05E20750
310
4B0304140006080800CC70623BE75B7789680500003C100000340000006662782F41393633353835312D344632462D344230382D423046372D3739314545314133324237412F6F626A656374732E786D6CAD575B8F9B3818FD2B887D06C22499CB8AA1CA655245D5B455A356FB305264C061D8018C6C3393D95FBFC7600890
310
A4CD5EF210B0B1BFEBF98E3F7B1FF6596ABC522E1296DF9BAE3D320D9A872C4AF2F8DE2CE5CEBA358D0FBEC719939D65A691938CDE9B6ADAF4BD98B3B2D05311DD91329583D9D5FC0F438434A7A611A644887B5384CF34233629258BA878B12322891DEFF6B66BD70BFB62634E8AE781D082709A4B588AF91C528CDA28B73F
310
1C998EEF39EABBEFA97FBD6A7C7E9553F9D3D79FE442923C3C523610337627CB87ABE99D359D4CC6D6E4FACAB5E6ABF9D2726FC6A3C5F56271377BB88362213924694B38DD99FE47C48627A1E7D49F5A8BB5E1A74C0A599ED3B0F21F1E56366B89112D681E218F0915D0D6F17AD41FBA2A369DCF6335D62ABBD39779D5DDD1
310
11D4D8DE3CBB96B2E04FB8202E41051754A1AA8E8F76B4C6DFE810B580B1547F4B84911149794252234D024EF8BBE963A95AE27B3D310A9D5C215C7960FAEE415ED75694C6AFB17BCACA5D99A60A9AA65F217B0BFC53292ACB92BF283FAD0D3621576592CB5BED907C2FA8E9DF794E35E97BEA31BED21FEB401ABB94C44839
310
DCACBF0E1C5DA8DA5B2F4DFFD32AD86F543D9E565E7056502E157C00AD2671CD534549AB752FCA9CDA00677A313F04E51B22FF19E57B300579E3C97EB29F682D92935CEC18CF901B7B54FD8C51F362B56FC72FE0B3C1EAE335EDCCBF5AEC39ADB17DC238973F804BA5E6F6BFE7AF1FB32E523BE9F3BD571418E3631DCA4D48
310
5250CF639223210A9446CA30052EDF057BD35F8329C1ECD84552BF0DC8D18BE7BCE23BFE6BD960AB4A7DE79923A103BEBD80F911CBAA2C60DB19B01CF164A5583B772EE6D3FFA56666CBCDA74DC97724A48F9A58967497E489C4D979006FD7A05E227A1EBDD0F737C623387A9C844D3709995625106D157315F8B8392CD4E0
310
A0B9A720C4BE9829CEF37EA1E13111214D53925356365ADA634861B52519DD27A00AEB808EAF0628E6F435519D446F45CF2C9CF5214F0A15B2F6D06B79DA3EE3CBF7F56780D2F4E7EF73A0F5E5B02A38D07DC852C6B7C1FBB6664213E0C39E3EBA7FF4E1AD23EA2829407C85E586727488B751B2DB9502BC7B228A3FD68B6E
310
A65A22397E690AA8D158D7E404EC8CDA235CC3B7D1898680131CEC2CDF2638C65196279577750F15884AEE19F94199155B92B13297978469D4F8D358DF0AEF7631E28DC8F0D9F437D5D39A83B2231A1D52D543813A824EF8D44BCFF2FA6A31BD1E8DAD87F1CCB526B3879935BF59CDADD5C37479BB1CDD4CA7B3556B516589
310
EF352754B706114D9C885EC9131DE6EFEB43D99AFE2391C2F958179413D7CFEF6B1B6DB1E7600F00DE6E5C67454A339A4BA2E0FBA85ED26F045D454F463DBFCE484C2F90F2E5E3666003662ED8F755951A7D1BECD5B30B550B2785C8E7320B7292A4838DDA71BBC863ED7613CAF659337A3354231D4FF4A182A54904C2898C
310
98B28C4AD0CE056CCF332A80986E571EE9DBC305BB5FEB7E509220A58D25CF042D712A806AC0AD0C657FDEF80D2D9CEAA2EE4D1C76F60BFE74219A06527D6F82DF6412526107381E55E353090704D085B52408A8913C4ED159D79BDA71BB4BC506F4831350EB6F975CD22D69BF7AC49B91A2C0A9DDA3D5CA36AD20FC478E37
310
E61844E2352865EBCB61A275A65283CAAA9DD27703B4102F5AF51EF5F573B75CBB5AD38BC845F7A49F82A0966A49C2E3EA5EA0ECD326CD965F1DB402C6FA8B51A4658C5C5E2EC9E214602E55810345408596591009A82E7E7FFACA19EEA299B14A0081A705CB3296EBC14CDF658DCD336EA6D1136881AAEB87B81AB9EE53D5
310
F5EB8BC8362082DA24122F98680A4E7930C01A0079749CEA14382A0783E5EBA5A10F8C098456A03D6A4AEB6BB881E2513747552A5DB22C7EDAF83BD5528081A365F7FF06504B0304140006080000CC70623B000000000000000000000000350000006662782F41393633353835312D344632462D344230382D423046372D37
310
39314545314133324237412F76657274696365732E62696E504B0304140006080800CC70623BF270F1330600000004000000360000006662782F41393633353835312D344632462D344230382D423046372D3739314545314133324237412F747269616E676C65732E62696E636660600000504B0304140006080000CC7062
310
3B000000000000000000000000370000006662782F41393633353835312D344632462D344230382D423046372D3739314545314133324237412F617474726962757465732E62696E504B0304140006080800CC70623B08DA0BD19000000041010000360000006662782F41393633353835312D344632462D344230382D4230
310
46372D3739314545314133324237412F6469726563746F72792E786D6C858F410AC3201045AF22B36F53E9A60B35CBEEBAE80D244E44489C6234F4F835464A48035D0DF398FF9F8AF63D0E6CC63039F212F8F9020C7D47C6792B21C5FE7403D62A1188E2E60C98D7234A5830286103A55745067B9D86B8A3CF9C7F90C11DE6
310
07FB144396D7B6A82D282E9A152AD114D5EF2CB866EEE831B8EEA07A7BB5A8D7D61A2BAAEB7FD5F70921FF497D00504B0304140006080800CC70623BEDD1DC58FD000000A00100003B0000006662782F41393633353835312D344632462D344230382D423046372D3739314545314133324237412F7265736F75726365732F
310
636F72652E786D6C8D504B6E833010BD0A9A6D65B00922041947112427E8052C33A156828DFCA97AFC9A40A576D7CDCCE87D344F8F9FBFE667F689CE6B6B3A6039850C8DB2A336530731DC4903D95970676DF82583CCC8193B5861107C72362E3BA4AC096842428D1D7107A5F7182053CF7474E0D507CE32973124857FE48B
310
540F3961CEF244279DE03EB81420DB9EAC1384436FA353E879B1B182C7A8C75DA3C7F453DF353A1075D537A7BA6464B8F535A99AE14A9A2BBD90E350DD183B5CFABE3AF262350B1EF4FC9351399401471025A527C218A1E53BAB5A5AB765F5469B96525EACF23FA6B88CFF34456DC2A1DCE36E360F82A5202F42F062ED2BAD
310
579969AFDD8A6F504B010214000A0000080000CC70623B3DEE336E79000000790000001B00000000000000000000000000000000006175746F6465736B2D64657369676E2D7061636B6167652E786D6C504B01021400140006080800CC70623BD486FD9CA0000000F40000001300000000000000000000000000B20000005B
310
436F6E74656E745F54797065735D2E786D6C504B01021400140006080800CC70623B853B8169EB0000007C010000080000000000000000000000000083010000636F72652E786D6C504B01021400140006080800CC70623B55019EA25F0000007C000000070000000000000000000000000094020000636E782E786D6C504B
310
01021400140006080800CC70623BDBABAAF470010000D40300000C00000000000000000000000000180300006662782F636F72652E786D6C504B01021400140006080800CC70623B9C113CC27E0000009D0000000B00000000000000000000000000B20400006662782F636E782E786D6C504B01021400140006080800CC70
310
623B7DF2F77C2A010000120200003100000000000000000000000000590500006662782F41393633353835312D344632462D344230382D423046372D3739314545314133324237412F636F72652E786D6C504B01021400140006080800CC70623BAD7543B64E010000330300003000000000000000000000000000D2060000
310
6662782F41393633353835312D344632462D344230382D423046372D3739314545314133324237412F636E782E786D6C504B01021400140006080800CC70623BE75B7789680500003C10000034000000000000000000000000006E0800006662782F41393633353835312D344632462D344230382D423046372D3739314545
310
314133324237412F6F626A656374732E786D6C504B01021400140006080000CC70623B0000000000000000000000003500000000000000000000000000280E00006662782F41393633353835312D344632462D344230382D423046372D3739314545314133324237412F76657274696365732E62696E504B01021400140006
310
080800CC70623BF270F133060000000400000036000000000000000000000000007B0E00006662782F41393633353835312D344632462D344230382D423046372D3739314545314133324237412F747269616E676C65732E62696E504B01021400140006080000CC70623B0000000000000000000000003700000000000000
310
000000000000D50E00006662782F41393633353835312D344632462D344230382D423046372D3739314545314133324237412F617474726962757465732E62696E504B01021400140006080800CC70623B08DA0BD1900000004101000036000000000000000000000000002A0F00006662782F41393633353835312D344632
310
462D344230382D423046372D3739314545314133324237412F6469726563746F72792E786D6C504B01021400140006080800CC70623BEDD1DC58FD000000A00100003B000000000000000000000000000E1000006662782F41393633353835312D344632462D344230382D423046372D3739314545314133324237412F7265
310
736F75726365732F636F72652E786D6C504B0506000000000E000E0080040000641100000000
  0
XRECORD
  5
1F8
102
{ACAD_REACTORS
330
1F7
102
}
330
1F7
100
AcDbXrecord
280
     1
 70
     1
 90
429727718
  1
30362254-06B7-45E0-A893-8CFA70E3D6BC
310
504B03040A0000080000CC70623B3DEE336E79000000790000001B0000006175746F6465736B2D64657369676E2D7061636B6167652E786D6C3C3F786D6C2076657273696F6E3D22312E302220656E636F64696E673D227574662D3822203F3E3C666F726D6174733E3C666F726D61743E687474703A2F2F736368656D612E
310
6175746F6465736B2E636F6D2F64657369676E2D7061636B6167652F323030393C2F666F726D61743E3C2F666F726D6174733E504B0304140006080800CC70623BD486FD9CA0000000F4000000130000005B436F6E74656E745F54797065735D2E786D6C7D8EC10E82300C865F65E91D8A1E8C310C0EEA1BF002731658846E
310
D98AC1B77784ABF1D8FE5FBFBF75BBCE937A534CCEB38643598122B6FEE978D0B0485F9C41B54DDD7D022595594E1A469170414C76A4D9A4D207E29CF43ECE46F218070CC6BECC4078ACAA135ACF422C856C0E68EA1BF5669944DDD7BCDE7B1F8E415D77AECB980613C2E4AC91FC167A2B244592486606FC29C8FD7F045B9A
310
EF7053A7E60B504B0304140006080800CC70623B1EC5D7A3EB0000007C01000008000000636F72652E786D6C8D90416EC3201045AF82665B6103C6756C6122AB4D4ED00B204C5C94182C03558F5F9C3852BBEB6A467FFE9B197D71FC9E6FE8CBACC17AD7032D0820E3B41FAD9B7A48F1820F808E52ACDEC75F36404ECDA687
310
4D0629A6D5A76597B477D1B89855E747B38B2A041301E95B6E7A08FAD3CCAA50296647B8168BD2573599823EBB0CA76447F43862C7BCCF5EAC59410E4DDD9C7973C2755553CCCFA4C603E3040F1565ED3B1FDE4E432BCA0D9622DAF9795FAF464533826484B498524CD807E51D79ED187F21878E10516EF63F505AC67F42C9
310
BA58B1FDDD071640D2FCC87D2045B96591CB3DA85CB7DCE40F504B0304140006080800CC70623B55019EA25F0000007C00000007000000636E782E786D6C4DCB3B0E80201045D1AD90E915ED2CF8AC45050C11660C8261F98AB1B07AC9C97D42D718D865D3E909258CFD00CCE24AC6E326A164D74DC0B4128928FF32603847
310
2BA13128B1252AC747C6BAB984FC68F0B87FE8960A5C09FE86CFB69FBA01504B0304140006080800CC70623B8C9102E971010000D40300000C0000006662782F636F72652E786D6CC5535B6E833010BC8AE5DF0A6C08340F1947A84D4ED00B38C6A128602363A31CBFCB234A53A551FA553EC09AD9F5CE8C31DB9E9B1AF5CA
310
7695D1198E428A91D2D214952E33ECDD315861B4E5CC1AE3BE9561A445A3323CC098B3D21ADFCE9034DA29ED00D5A6503328BA4E398C640D8B0C77F253352214DE4145770A5B214FA2546114020D759C75CE8200340D19DE981F0F6746269C33EFAB6266AB02A655C74A59CCF365BADC27CB5D902ED22848F6340DF238A141
310
BE88E2F57B92BFEDF23523433367AE6A2EEAA455C2A902F398D2751045018D3FA264435F3771F242571B4A1919CA6F9A7C5B3CD9E42BED16F12C776AEB308F40C848FC700B1139D4891EF410CEC810227CC6846F8386402064270EF5C5C709A05E49676C024C61FC95EA45ED154CA5211D1FF4FB8291A913A68E9B83EBBB33
310
E2A7673CDE118E5AE8124C0807CB8377834E366998436B950D7A7746DAD846D4CFD978E0F04FD455FC5D49D2D4C6FE9722321F10997F0F32DC47FE05504B0304140006080800CC70623BFFEA85907E0000009D0000000B0000006662782F636E782E786D6C4DCCD10A83201886E15B91FFDC95D95A811AB6F23E625948A6C3
310
E9D8E5AF46073BFAE0E1E365ED67B3E8ADC3CB78C7815C7240DA3DFC64DCC221C519D7805AC182F7F1EF06C88D9BE6703008B6049F9E274D7A1E938DBB5AE3D6131B2589BA0D3D965551E0B2EA732C9B9A624AAEB41E3A557677029960D9AFB4EF11165F504B0304140006080800CC70623B4FEEA4082C0100001202000031
310
0000006662782F39464131463745442D413632322D343644302D413938332D3331353338454246344243312F636F72652E786D6C8D515B6EC32010BC0AE2AB55850DD871ED0813254D72825EC00192A2C460F1A872FC42ED48ED5F7E00CDCECCCEB26C731F6FE05B39AFADE921293004CA082BB5B9F43086336A21D870E6AC
310
0D7F68109861543DCC30E4ECE26C9C164858139409093556AA051CBC570102714B8F1E7AF1A5C6A11862480C7F2DA6415C878B2A4891CA89C7990F2E050073937C42DE1DB7E4F87ED8A36D4329AA9B3D46DBAEAD504556557BD81DEBDD0761E52CE42C462D17B996298E3E6BE59E35C962CE821E1FF18553435012728A7187
310
0841987E927A8D9B35ADDF70BBC6989599FE4F1427F9A4286A132ABAC49D651EF234CD5CE04CDA78BA3DC2A8FB645D00B9DF8B57E215725C60BCA2A463E54C4CE327C7A65E1C7DB02E7DEFCBF594B864C5CA6CDBD49C957943E9FA5D5FBAF336F90F504B0304140006080800CC70623BAD7543B64E01000033030000300000
310
006662782F39464131463745442D413632322D343644302D413938332D3331353338454246344243312F636E782E786D6CD593CD6EC32010845F0571AD6CE3D48AD20813A9873E410FBD12D82434182C7EAAE6EDBB2424CD25871E7B41D6EC30B3FA84F9E67BB2E40B4234DE8DB46F1925E094D7C6ED479AD3AE5951B2113C
310
789FEE6C943839C1488B4C05DF079FE72A69D8C96C13AAD6B8631503449F83828872B949AC57D26200B826A308D316B4064D6E46FCDA41C05550DC9E483A00797BFD207EFB092A45DE9514C1BBD22178396BD39D891265658C238DEA00936C654E5E433CB65A26D9F6EDB5EBC14EBF49A45CB856E66048291F6939A9A81BB5
310
C8917738143CA680F4AA299D66A042CEB3354A2684DC9D8D178FE0D9B8B41CAAD720F880EE7EF93C0C18769E099ECC04D5A102C8049A8A05632F4DDF376CF1DE0F6BB65C2F8627B65A33C6BB62177CEBBDAD973006829F89F22E814B54F4BC2BE347F8AA8F681390B50FA73F804400B5F542E796F19FF974E7F78DB802FE05
310
E207504B0304140006080800CC70623B16AB87BA640500003C100000340000006662782F39464131463745442D413632322D343644302D413938332D3331353338454246344243312F6F626A656374732E786D6CAD575B6FA33818FD2B887DE6924B3BED8A326A92B68A663B534DD4D13E548A0C38942D60649B369D5FBFC7
310
600890A493BDE42160637FD7F31D7FF63E6FB3D478A55C242CBF3247B66B1A340F5994E4F19559CA8D75611A9F7D8F33263BCB4C232719BD32D5B4E97B316765A1A722BA21652A07B3B7B33F0D11D29C9A46981221AE4C113ED38CD8A4942CA2E2C58E882476BCD9DA23BB5ED8171B73523C0F841684D35CC252CCE79062D4
310
468DFA43D7747CCF51DF7D4FFDEB5593E3AB9CCA9FBEFE241792E4E19EB28198C968BAB8199F5D5A67D3E9C49A9E8F47D6EC76B6B0469F26EEFC7C3EBFBCBEB98462213924694B38DD98FE1D62C393D073EA4FADC5DAF04326852CCF6958F90F0F2B9BB5C48816348F90C7840A68EB78EDF68723159BCEE7891A6B95DDE9D3
310
BCEAEEE8086A6C6F9E5D4B59F0175C10A7A0820BAA5055C7473B5AE3CFDD452D602CD5DF12616444529E90D448938013FE6EFA58AA96F85E4F8C42275708571E98FE6827AF6B2B4AE3D7D83D64E5A64C53054DD3AF90BD06FEA9149565C94FCA0F6B834DC85599E4F2423B24DF0B6AFA979E534DFA9E7A4CC6FA631D486393
310
921829879BF5D781A373557BCB85E97FB90DB62B558F8795179C15944B051F40AB495CF35451D26A4727654E6D8033BD98EF82F21D91FF8AF2DD9982BCF1643BDD4EB516C9492E368C67C88DED563FC36D5EACF66DFF057C3658BDBFA69DF9578B3DA735B64F18C7F20770A9D45CFCF7FCF563D6456A277DBEF78A02637CA2
310
43B90A490AEAB94F72244481D24819A6C0E59B606BFA4B3025981DBB48EAB701D97BF19C577CC77F2D1B6C55A9EF3C732474C0B727303F625995056C3B02963D9EAC146BE78EC5FCEC7FA999EBC5EACBAAE41B12D27B4D2C0BBA49F244E2ECDC81B76B502F113D8F5EE8FB1BE3111CDD4FC2AA9B844CAB1288B68AB90A7CDC
310
1C166AB0D3DC5310625FCC14E779BFD0709F8890A629C9292B1B2DED31A4B0DA928CEE135085754027E3018A397D4D5427D15BD1330B677DC8934285AC3DF45A9EB68FF8F2B8FC0A509AFEECFD0FF2DE25CC6047F7214B195F07EFEB9A094D800F7BFAE8FED187B78EA8A3A400F115961BCAD1215E47C966530AF0EE8128FE
310
58CEBB996A8964FFA529A046635D9353B0336A8F700DDF46271A024E70B0B37C9DE01847591E54DED53D54202AB947E4076556AC49C6CA5C9E1226B7F1A7B1BE15DEED62C41B91E1B3E9AFAAA735036547343A925075041DF0A9979E893B391F8FCFA6967B3EFB644DCF6E5CEBFAE272625DCC6FAF3FB93793C5F90CE1EF57
310
407342756B10D1C489E8953CD1617E5CEECAD6F4EF8914CE5D5D504E5C3F1F9736DA62CFC11E00BCDDB8CC8A9466349744C1F75EBDA4DF09BA8A9E8C7A7E9991989E20E5DBDD6A6003664ED8F7A04A8DBE0DF6EAD9B9AA858342E47399053949D2C146EDB85DE4B176BB0965FBAC19BD19AA918E27FA50C1D22402E144464C
310
59462568E704B6E71915404CB72B8FF4EDE184DDAF753F284990D2C6926782963815403548A70C657FDEF80D2D9CEAA2AE4C1C76F60BFE74219A06527D6582DF6412526107381E55E353090704D085B52408D0933C4ED159D79BDA71BB4BC506F4831350EB6F979CD22D69BF7AC49B91A2C0A9DDA3D5CA36AD20FC478E37E6
310
1844E2352865EBCB6EA275A652E3836BE04EFB400BF1A2556F515F1FBB35B2AB35BD889C744FFA1004B5544B121E57F70215746DD2F5E2C1412B602CBF19455AC6C8E5E9922C4E01E65215385004546899059180EAFCF7A707CE7017CD8CDB0410789AB32C63B91E5CEBBBACB17AC6CD347A022D5075FD106377347AAABA7E
310
7D11590744509B44E205134DC1290F06580320F78E537D3D73540E06CB970B431F185308AD40BBD794D6D77003C5A36E8EAA54BA64597CD8F83BD552A080A365F7FF06504B0304140006080000CC70623B000000000000000000000000350000006662782F39464131463745442D413632322D343644302D413938332D3331
310
353338454246344243312F76657274696365732E62696E504B0304140006080800CC70623BF270F1330600000004000000360000006662782F39464131463745442D413632322D343644302D413938332D3331353338454246344243312F747269616E676C65732E62696E636660600000504B0304140006080000CC70623B
310
000000000000000000000000370000006662782F39464131463745442D413632322D343644302D413938332D3331353338454246344243312F617474726962757465732E62696E504B0304140006080800CC70623B08DA0BD19000000041010000360000006662782F39464131463745442D413632322D343644302D413938
310
332D3331353338454246344243312F6469726563746F72792E786D6C858F410AC3201045AF22B36F53E9A60B35CBEEBAE80D244E44489C6234F4F835464A48035D0DF398FF9F8AF63D0E6CC63039F212F8F9020C7D47C6792B21C5FE7403D62A1188E2E60C98D7234A5830286103A55745067B9D86B8A3CF9C7F90C11DE607
310
FB144396D7B6A82D282E9A152AD114D5EF2CB866EEE831B8EEA07A7BB5A8D7D61A2BAAEB7FD5F70921FF497D00504B0304140006080800CC70623B0D6EF93BFE000000A00100003B0000006662782F39464131463745442D413632322D343644302D413938332D3331353338454246344243312F7265736F75726365732F63
310
6F72652E786D6C8D50596E833010BD0A9ADFCA60B334011947A8694ED00B586642AC041B79A97AFC9A40A5F6AF3F33A3B7689E1E3F7DCD8FEC139DD7D6F4C0720A191A65476DA61E62B892236427C19DB5E1970C322367EC618541F0C9D9B8EC90B226A009093576C41D94DE63804C3DD2D18357379C652E63480A7FCF17A9
310
EE72C29CE5894E3AC17D702940B63D59270887DE46A7D0F36263058F518FBB468FE9A7BE6A7420864373B8D4873369AA8691FA421B3294352543C5CAF65C0F6FEF43CB8BD52C78D0F34F46E550061C419494B6843142CB0F5677F4B52BEB177AEC28E5C52AFF638ACBF84F53D42654E51E77B379102C05791282176B5F693D
310
CB4C7BED567C03504B010214000A0000080000CC70623B3DEE336E79000000790000001B00000000000000000000000000000000006175746F6465736B2D64657369676E2D7061636B6167652E786D6C504B01021400140006080800CC70623BD486FD9CA0000000F40000001300000000000000000000000000B20000005B
310
436F6E74656E745F54797065735D2E786D6C504B01021400140006080800CC70623B1EC5D7A3EB0000007C010000080000000000000000000000000083010000636F72652E786D6C504B01021400140006080800CC70623B55019EA25F0000007C000000070000000000000000000000000094020000636E782E786D6C504B
310
01021400140006080800CC70623B8C9102E971010000D40300000C00000000000000000000000000180300006662782F636F72652E786D6C504B01021400140006080800CC70623BFFEA85907E0000009D0000000B00000000000000000000000000B30400006662782F636E782E786D6C504B01021400140006080800CC70
310
623B4FEEA4082C0100001202000031000000000000000000000000005A0500006662782F39464131463745442D413632322D343644302D413938332D3331353338454246344243312F636F72652E786D6C504B01021400140006080800CC70623BAD7543B64E010000330300003000000000000000000000000000D5060000
310
6662782F39464131463745442D413632322D343644302D413938332D3331353338454246344243312F636E782E786D6C504B01021400140006080800CC70623B16AB87BA640500003C1000003400000000000000000000000000710800006662782F39464131463745442D413632322D343644302D413938332D3331353338
310
454246344243312F6F626A656374732E786D6C504B01021400140006080000CC70623B0000000000000000000000003500000000000000000000000000270E00006662782F39464131463745442D413632322D343644302D413938332D3331353338454246344243312F76657274696365732E62696E504B01021400140006
310
080800CC70623BF270F133060000000400000036000000000000000000000000007A0E00006662782F39464131463745442D413632322D343644302D413938332D3331353338454246344243312F747269616E676C65732E62696E504B01021400140006080000CC70623B0000000000000000000000003700000000000000
310
000000000000D40E00006662782F39464131463745442D413632322D343644302D413938332D3331353338454246344243312F617474726962757465732E62696E504B01021400140006080800CC70623B08DA0BD190000000410100003600000000000000000000000000290F00006662782F39464131463745442D413632
310
322D343644302D413938332D3331353338454246344243312F6469726563746F72792E786D6C504B01021400140006080800CC70623B0D6EF93BFE000000A00100003B000000000000000000000000000D1000006662782F39464131463745442D413632322D343644302D413938332D3331353338454246344243312F7265
310
736F75726365732F636F72652E786D6C504B0506000000000E000E0080040000641100000000
  0
XRECORD
  5
175
102
{ACAD_REACTORS
330
173
102
}
330
173
100
AcDbXrecord
280
     1
270
     1
271
     1
  0
XRECORD
  5
174
102
{ACAD_REACTORS
330
173
102
}
330
173
100
AcDbXrecord
280
     1
270
     1
271
     1
  0
XRECORD
  5
1FB
102
{ACAD_REACTORS
330
173
102
}
330
173
100
AcDbXrecord
280
     1
 70
     0
 90
1673772943
  1
ECE7A1D2-D628-4531-984C-D00F80459256
310
504B03040A0000080000CC70623B3DEE336E79000000790000001B0000006175746F6465736B2D64657369676E2D7061636B6167652E786D6C3C3F786D6C2076657273696F6E3D22312E302220656E636F64696E673D227574662D3822203F3E3C666F726D6174733E3C666F726D61743E687474703A2F2F736368656D612E
310
6175746F6465736B2E636F6D2F64657369676E2D7061636B6167652F323030393C2F666F726D61743E3C2F666F726D6174733E504B0304140006080800CC70623BD486FD9CA0000000F4000000130000005B436F6E74656E745F54797065735D2E786D6C7D8EC10E82300C865F65E91D8A1E8C310C0EEA1BF002731658846E
310
D98AC1B77784ABF1D8FE5FBFBF75BBCE937A534CCEB38643598122B6FEE978D0B0485F9C41B54DDD7D022595594E1A469170414C76A4D9A4D207E29CF43ECE46F218070CC6BECC4078ACAA135ACF422C856C0E68EA1BF5669944DDD7BCDE7B1F8E415D77AECB980613C2E4AC91FC167A2B244592486606FC29C8FD7F045B9A
310
EF7053A7E60B504B0304140006080800CC70623BD9DDAED0EC0000007C01000008000000636F72652E786D6C8D90416EC3201045AF82665B61836D9CD8C2444DD39CA01740405C94182C03558F5F9C3852BBEB6A467FFE9B197D7EF89E6EE8CB2CC17A37002D0820E394D7D68D03A478C17B4007C117EFE32F1B20272733C0
310
2A83E0E3E2D3BC49CABB685CCCAAF3DA6CA20CC14440EA969B0182FA34932C648AD911AEC52CD5558EA6A0CF2EC329598D1E47ACCEFBECC59A050463A7EA5833865FEBDD0E37353BE3EE8DBDE3F6786A48D375FBF6CC78B9C282473B3DEFABC5C86834888A900E538A49F5419B9EB47DD5BC907D4F082F57FB1F28CDFA9F50
310
B22ED6D5F6EE030B20687EE43E10BC5CB3C8E51E54AE6B6EE207504B0304140006080800CC70623B55019EA25F0000007C00000007000000636E782E786D6C4DCB3B0E80201045D1AD90E915ED2CF8AC45050C11660C8261F98AB1B07AC9C97D42D718D865D3E909258CFD00CCE24AC6E326A164D74DC0B4128928FF326038
310
472BA13128B1252AC747C6BAB984FC68F0B87FE8960A5C09FE86CFB69FBA01504B0304140006080800CC70623BA24EB22D72010000D40300000C0000006662782F636F72652E786D6CC5535B6E833010BC8AE5DF0A6C5E49888CA3A6694ED00B38E05014B091B1518EDFE511A5A9D228FD2A1F60CDEC7A67C6986DCE4D8D7A
310
69BA4AAB0C073EC548AA5C17952A33ECECD15B61B4E1CC686DBF9561A44423333CC098B3D268D7CE50AE9595CA02AA74216750749DB418E5352C32DCE59FB211BE70162ABA93DF8AFC244AE9073ED050C759670D0840D390E18DF9F1706664C23973AE2A66B62A605A75ACA4C13C4976E1364A12EF355A2EBD384AF65EFA96
310
BC7B8BED2EA6719AAE16FB8491A199335B351775B991C2CA02F390D2D40B028F861F41BCA68B7518BFD0D59A524686F29B26D7164F36B94AD9289CE54E6D1DE6010819891F6E21228B3AD1831EC219194284CF98F06DD01008846CC5A1BEF83801D4CBDC6A1303536877A57A513B0953A94FC707FDBE6064EA84A9E3E6E0FA
310
EE8CF0E9198F7784A316AA0413C2C2F2E0ECA0934D1AE6D05A69BCDE9E91D2A611F573361E38FC1375157F5752AE6B6DFE4B11990F88CCBF0719EE23FF02504B0304140006080800CC70623B408A7D3B7C0000009D0000000B0000006662782F636E782E786D6C4DCCD10A83201886E15B91FFDC552A92A0064DBC8F581632
310
D3703A76F9ABD1C18E3E78F878E5F0D9027ABBFCF2292AE86E2D20171F69F6715550CB827B40839639A5F2770314A7CD293819B45C73AAFB45B35BA61ACAA1C1C7E7855C58C15BC331339661262CC762340413D68D77DA5B42298546CBE6573AF60CEB2F504B0304140006080800CC70623B449FB9BD290100001202000031
310
0000006662782F36394639363044362D344446342D343946362D394244322D3234314243333846323333332F636F72652E786D6C8D515B6EC32010BC0AE22B55850D98B871848994463E412FE002495162B07854397EA176A4F62F3F2C9A9D991D587EB84F37F0AD7D30CEF6905418026DA553C65E7A98E219ED203808EE9D
310
8B7F6810D871D23D2C3014FCE25D9A57483A1BB58D19B54EE9151C43D0110279CB971E06F9A5A7B11A53CC8C70ADE6515EC78BAE4895DB992778883E0700CB907242D17643D7E2538BD869608875438BBAE38922CAC8F1BDD90DB4691A5E2F42C153326A951B95E398B3D1FE599322163C9AE9115F7A3D46ADA0A018778810
310
84E907617BDCEE297BC5BB3DC6BC2EF47FA234AB2745C9D8D8D035EE220B50105E2F0DC1954B9FB747187D9F9D8FA0CCDB042D5FA0C015C65B42DF78BD10F3F3B363CB56C7109DCFDFBBB97E662ED92EB62D13BC2E1BCAE5777DB9966D8A1F504B0304140006080800CC70623BAD7543B64E01000033030000300000006662
310
782F36394639363044362D344446342D343946362D394244322D3234314243333846323333332F636E782E786D6CD593CD6EC32010845F0571AD6CE3D48AD20813A9873E410FBD12D82434182C7EAAE6EDBB2424CD25871E7B41D6EC30B3FA84F9E67BB2E40B4234DE8DB46F1925E094D7C6ED479AD3AE5951B2113C789FEE
310
6C943839C1488B4C05DF079FE72A69D8C96C13AAD6B8631503449F83828872B949AC57D26200B826A308D316B4064D6E46FCDA41C05550DC9E483A00797BFD207EFB092A45DE9514C1BBD22178396BD39D891265658C238DEA00936C654E5E433CB65A26D9F6EDB5EBC14EBF49A45CB856E66048291F6939A9A81BB5C89177
310
38143CA680F4AA299D66A042CEB3354A2684DC9D8D178FE0D9B8B41CAAD720F880EE7EF93C0C18769E099ECC04D5A102C8049A8A05632F4DDF376CF1DE0F6BB65C2F8627B65A33C6BB62177CEBBDAD973006829F89F22E814B54F4BC2BE347F8AA8F681390B50FA73F804400B5F542E796F19FF974E7F78DB802FE05E20750
310
4B0304140006080800CC70623B8D05915C650500003B100000340000006662782F36394639363044362D344446342D343946362D394244322D3234314243333846323333332F6F626A656374732E786D6CAD575B6FA33814FE2B887D06429276DA1565D4266D158D3A339A6846FB502932E050B66023DB74D2FDF5FB190C01
310
9276B2973C046C8ECFF53B17071F77456EBD502133CEAE6CDF9DD81665314F32965ED995DA3A17B6F5310C04E7AA47665B8C14F4CAD6DB7618A48257A5D94AE89654B91AEDDEDDFC61C998326A5B714EA4BCB265FC440BE2924AF184CA6737218AB8E976E7FA6E4338649B0A523E8D98964450A6A029F619B8588D52FE7039
310
B1BD30F0F4F730D0FF866AF6369557DB33949F31A9088B0F848DD8CCFCF9F2767A76E99CCDE733677E3EF59D9BBB9BA5E37F984D16E78BC5E5F5ED25044B25C0C96822E8D60EEFE11B91C581D77CEA34368A1F5329E68CD1B8B61F16D63A1B8E092D294B10C78C4A48EB593D192E7DED9BDEE7995E1B91FDEDD3ACEA9FE831
310
6A756F9F7D4D79F4274C90A7A04248AA51D5F8C718DAE06FB2F75AC4796EBE65D22A88A22223B995679120E2D50E41AA49C260C046A35368846B0BECD0DFF3EBEB8AD4F835768F69B9ADF25C43D30E6B646F807FAA64AD59F61715C7A54127C4AACA98BA3006A9D792DAE165E0D59B61A01FB3A9F9D838D2DAE62445C86166
310
F37564E842E7DE6A69879FEEA2DD5AE7E371E1A5E025154AC307D06A03D73EB5978C58FFA4C8E9033066E0F3BD53BEC1F39F91BE7B55103791EDE6BBB991A2046172CB4581D8B893FA674DDA17A77B3B7C413D1B511FD2743BFF8A38F03A658705E3ADF8015C3A3417FF3D7E439FF591DA0B5F18BC20C1B8981957AE6392A3
310
F43C640C01D1A0B4728E2DD4F26DB4B3C3152A252A3B4E913CEC1C72F012782FF88EFF8637AA552DBEF76408E8A8DE9E50F9E1CB3A2DA0DB1B6039A893B56063DC5B3E3FFB5F72E67AB9FEB4AEC496C4F4C1149625DD662C53E89D7BF0F6151A046260D1337DFDC94502430F83B0EE07A130A224BCAD7DAE1D9FB6CD422FF6
310
920702629C4BB9AE79C12F243C6432A6794E18E5552BA56B431AAB5D91317302B2B071E86C3A42B1A02F999E24061403B5D0EB639195DA655DD3EBEAB4FB862DDF579F014AD0E73C22F99E28DA57FB98E75C6CA2D74D53086D600F4786E0FE3144B771A8A7B900F03594DB8A633CBC49B2EDB69228BB479CF863B5E807AAAB
310
23872F6DFEB4129B949CA33823F58830E86D65621E10047D9DB34D862E8EAC3C2ABC2F7B2C40D67CDFE01F5545B92105AF983AC54D93D69E56FB8E797F88913F898A9FEC705D3F9D1B54EC8426FB500D40A03BD0119B06E1B95DDC7EB8F6975367793EBD70E66733DFB9BC982F9CE564727731999F5D4ECFCE3B8D6A4DC2A0
310
6D50FD148437D110834A64C6CDDF57FBACB5C307A2A477DFE4939736CFEF2B175371E0E10CF0DD1D5C15654E0BCA14D1E87DD02FF93782A162C0A3D95F1524A52770F972BF1EE9809D13CE7DD599467F8ECE9ADD85CE85A34CD45355448C64F9E8A031DC2D596ACC6E5DD93D9B82DE2EF5CAF81363A8E47996A0DE24564A79
310
4115AACE09C55E14540231FDA13C319787134EBF34E3A022514E5B4D9E0826E25C02D5805B15ABE1BEF51B26383D445DD9E875EE33FE4C22DA16427D65A3BCA92CA6D28DD01DF5DC53330704308475351050232CCD31583787BA75774AFB06E5070DD0C8EF484E19968C5D83BA5B90B244D31E54D55A372320FE4786B7EA58
310
44E135AA5467CB7EA333A61683CC6A8C3257034C10CF46F40EF9F5BE59BE5BD30C3C72D235E95D10345C1D45445A5F0BB47E46A5EBE5570F9380B5FA629579952296A773720405982B9DE04011506178964401AA8BDF1FBF0A8EAB6861DD6580C0E38217056766716DAEB2D6FA0917D3E4116581EADB879C4E7CFFB11EFACD
310
3D641311495D92C8676CB409A72D18610D803CE8A626049E8EC1887CB5B44CC39883690DDA8399B4B9855B481E7D71D4A9D22F96E5BB73BF5793020C02137BF837504B0304140006080000CC70623B000000000000000000000000350000006662782F36394639363044362D344446342D343946362D394244322D32343142
310
43333846323333332F76657274696365732E62696E504B0304140006080800CC70623BF270F1330600000004000000360000006662782F36394639363044362D344446342D343946362D394244322D3234314243333846323333332F747269616E676C65732E62696E636660600000504B0304140006080000CC70623B0000
310
00000000000000000000370000006662782F36394639363044362D344446342D343946362D394244322D3234314243333846323333332F617474726962757465732E62696E504B0304140006080800CC70623B08DA0BD19000000041010000360000006662782F36394639363044362D344446342D343946362D394244322D
310
3234314243333846323333332F6469726563746F72792E786D6C858F410AC3201045AF22B36F53E9A60B35CBEEBAE80D244E44489C6234F4F835464A48035D0DF398FF9F8AF63D0E6CC63039F212F8F9020C7D47C6792B21C5FE7403D62A1188E2E60C98D7234A5830286103A55745067B9D86B8A3CF9C7F90C11DE607FB14
310
4396D7B6A82D282E9A152AD114D5EF2CB866EEE831B8EEA07A7BB5A8D7D61A2BAAEB7FD5F70921FF497D00504B0304140006080800CC70623BCA768048FE000000A00100003B0000006662782F36394639363044362D344446342D343946362D394244322D3234314243333846323333332F7265736F75726365732F636F72
310
652E786D6C8D50596E833010BD0A9ADFCA60D600328E9AA639412F609909B1126CE4A5EAF16B0295DABFFECC8CDEA2797AECF8353F924FB44E193D409E5248504B332A3D0D10FC95B4901C39B3C6F85F3248B49871801506CE266BC2B243D2688FDA47549B11775038871E12F988C7004EDE7016A9083E2ADC3D5D84BC8B09
310
D33C8D74D471E6BC8D0192EDC93A815B742658898E651BCB59086ADC356A8C3FD555A1055ED7E7E254D615792D0F075295F585746FF53B694EE78A565DD736979A65AB9933AFE69F8CD2A2F038022F28ED489E135A7CE4554F9BBEA85E68DB53CAB255FEC71496F19FA6A0B42F8B3DEE6673C0F318E4497096AD7DC5F52C33
310
EEB55BFE0D504B010214000A0000080000CC70623B3DEE336E79000000790000001B00000000000000000000000000000000006175746F6465736B2D64657369676E2D7061636B6167652E786D6C504B01021400140006080800CC70623BD486FD9CA0000000F40000001300000000000000000000000000B20000005B436F
310
6E74656E745F54797065735D2E786D6C504B01021400140006080800CC70623BD9DDAED0EC0000007C010000080000000000000000000000000083010000636F72652E786D6C504B01021400140006080800CC70623B55019EA25F0000007C000000070000000000000000000000000095020000636E782E786D6C504B0102
310
1400140006080800CC70623BA24EB22D72010000D40300000C00000000000000000000000000190300006662782F636F72652E786D6C504B01021400140006080800CC70623B408A7D3B7C0000009D0000000B00000000000000000000000000B50400006662782F636E782E786D6C504B01021400140006080800CC70623B
310
449FB9BD290100001202000031000000000000000000000000005A0500006662782F36394639363044362D344446342D343946362D394244322D3234314243333846323333332F636F72652E786D6C504B01021400140006080800CC70623BAD7543B64E010000330300003000000000000000000000000000D20600006662
310
782F36394639363044362D344446342D343946362D394244322D3234314243333846323333332F636E782E786D6C504B01021400140006080800CC70623B8D05915C650500003B10000034000000000000000000000000006E0800006662782F36394639363044362D344446342D343946362D394244322D32343142433338
310
46323333332F6F626A656374732E786D6C504B01021400140006080000CC70623B0000000000000000000000003500000000000000000000000000250E00006662782F36394639363044362D344446342D343946362D394244322D3234314243333846323333332F76657274696365732E62696E504B010214001400060808
310
00CC70623BF270F13306000000040000003600000000000000000000000000780E00006662782F36394639363044362D344446342D343946362D394244322D3234314243333846323333332F747269616E676C65732E62696E504B01021400140006080000CC70623B00000000000000000000000037000000000000000000
310
00000000D20E00006662782F36394639363044362D344446342D343946362D394244322D3234314243333846323333332F617474726962757465732E62696E504B01021400140006080800CC70623B08DA0BD190000000410100003600000000000000000000000000270F00006662782F36394639363044362D344446342D
310
343946362D394244322D3234314243333846323333332F6469726563746F72792E786D6C504B01021400140006080800CC70623BCA768048FE000000A00100003B000000000000000000000000000B1000006662782F36394639363044362D344446342D343946362D394244322D3234314243333846323333332F7265736F
310
75726365732F636F72652E786D6C504B0506000000000E000E0080040000621100000000
  0
XRECORD
  5
176
102
{ACAD_REACTORS
330
173
102
}
330
173
100
AcDbXrecord
280
     1
270
     1
271
     1
  0
XRECORD
  5
177
102
{ACAD_REACTORS
330
173
102
}
330
173
100
AcDbXrecord
280
     1
270
     1
271
     1
  0
CELLSTYLEMAP
  5
23FFE
102
{ACAD_REACTORS
330
162
102
}
330
162
100
AcDbCellStyleMap
 90
        3
300
CELLSTYLE
  1
TABLEFORMAT_BEGIN
 90
        5
170
     1
 91
        0
 92
    32768
 62
   257
 93
        1
300
CONTENTFORMAT
  1
CONTENTFORMAT_BEGIN
 90
        0
 91
        0
 92
      512
 93
        0
300

 40
0.0
140
1.0
 94
        5
 62
     0
340
11
144
6.0
309
CONTENTFORMAT_END
171
     1
301
MARGIN
  1
CELLMARGIN_BEGIN
 40
1.5
 40
1.5
 40
1.5
 40
1.5
 40
4.5
 40
4.5
309
CELLMARGIN_END
 94
        6
 95
        1
302
GRIDFORMAT
  1
GRIDFORMAT_BEGIN
 90
        0
 91
        1
 62
     0
 92
       -2
340
14
 93
        0
 40
1.125
309
GRIDFORMAT_END
 95
        2
302
GRIDFORMAT
  1
GRIDFORMAT_BEGIN
 90
        0
 91
        1
 62
     0
 92
       -2
340
14
 93
        0
 40
1.125
309
GRIDFORMAT_END
 95
        4
302
GRIDFORMAT
  1
GRIDFORMAT_BEGIN
 90
        0
 91
        1
 62
     0
 92
       -2
340
14
 93
        0
 40
1.125
309
GRIDFORMAT_END
 95
        8
302
GRIDFORMAT
  1
GRIDFORMAT_BEGIN
 90
        0
 91
        1
 62
     0
 92
       -2
340
14
 93
        0
 40
1.125
309
GRIDFORMAT_END
 95
       16
302
GRIDFORMAT
  1
GRIDFORMAT_BEGIN
 90
        0
 91
        1
 62
     0
 92
       -2
340
14
 93
        0
 40
1.125
309
GRIDFORMAT_END
 95
       32
302
GRIDFORMAT
  1
GRIDFORMAT_BEGIN
 90
        0
 91
        1
 62
     0
 92
       -2
340
14
 93
        0
 40
1.125
309
GRIDFORMAT_END
309
TABLEFORMAT_END
  1
CELLSTYLE_BEGIN
 90
        1
 91
        1
300
_TITLE
309
CELLSTYLE_END
300
CELLSTYLE
  1
TABLEFORMAT_BEGIN
 90
        5
170
     1
 91
        0
 92
        0
 62
   257
 93
        1
300
CONTENTFORMAT
  1
CONTENTFORMAT_BEGIN
 90
        0
 91
        0
 92
      512
 93
        0
300

 40
0.0
140
1.0
 94
        5
 62
     0
340
11
144
4.5
309
CONTENTFORMAT_END
171
     1
301
MARGIN
  1
CELLMARGIN_BEGIN
 40
1.5
 40
1.5
 40
1.5
 40
1.5
 40
4.5
 40
4.5
309
CELLMARGIN_END
 94
        6
 95
        1
302
GRIDFORMAT
  1
GRIDFORMAT_BEGIN
 90
        0
 91
        1
 62
     0
 92
       -2
340
14
 93
        0
 40
1.125
309
GRIDFORMAT_END
 95
        2
302
GRIDFORMAT
  1
GRIDFORMAT_BEGIN
 90
        0
 91
        1
 62
     0
 92
       -2
340
14
 93
        0
 40
1.125
309
GRIDFORMAT_END
 95
        4
302
GRIDFORMAT
  1
GRIDFORMAT_BEGIN
 90
        0
 91
        1
 62
     0
 92
       -2
340
14
 93
        0
 40
1.125
309
GRIDFORMAT_END
 95
        8
302
GRIDFORMAT
  1
GRIDFORMAT_BEGIN
 90
        0
 91
        1
 62
     0
 92
       -2
340
14
 93
        0
 40
1.125
309
GRIDFORMAT_END
 95
       16
302
GRIDFORMAT
  1
GRIDFORMAT_BEGIN
 90
        0
 91
        1
 62
     0
 92
       -2
340
14
 93
        0
 40
1.125
309
GRIDFORMAT_END
 95
       32
302
GRIDFORMAT
  1
GRIDFORMAT_BEGIN
 90
        0
 91
        1
 62
     0
 92
       -2
340
14
 93
        0
 40
1.125
309
GRIDFORMAT_END
309
TABLEFORMAT_END
  1
CELLSTYLE_BEGIN
 90
        2
 91
        1
300
_HEADER
309
CELLSTYLE_END
300
CELLSTYLE
  1
TABLEFORMAT_BEGIN
 90
        5
170
     1
 91
        0
 92
        0
 62
   257
 93
        1
300
CONTENTFORMAT
  1
CONTENTFORMAT_BEGIN
 90
        0
 91
        0
 92
      512
 93
        0
300

 40
0.0
140
1.0
 94
        2
 62
     0
340
11
144
4.5
309
CONTENTFORMAT_END
171
     1
301
MARGIN
  1
CELLMARGIN_BEGIN
 40
1.5
 40
1.5
 40
1.5
 40
1.5
 40
4.5
 40
4.5
309
CELLMARGIN_END
 94
        6
 95
        1
302
GRIDFORMAT
  1
GRIDFORMAT_BEGIN
 90
        0
 91
        1
 62
     0
 92
       -2
340
14
 93
        0
 40
1.125
309
GRIDFORMAT_END
 95
        2
302
GRIDFORMAT
  1
GRIDFORMAT_BEGIN
 90
        0
 91
        1
 62
     0
 92
       -2
340
14
 93
        0
 40
1.125
309
GRIDFORMAT_END
 95
        4
302
GRIDFORMAT
  1
GRIDFORMAT_BEGIN
 90
        0
 91
        1
 62
     0
 92
       -2
340
14
 93
        0
 40
1.125
309
GRIDFORMAT_END
 95
        8
302
GRIDFORMAT
  1
GRIDFORMAT_BEGIN
 90
        0
 91
        1
 62
     0
 92
       -2
340
14
 93
        0
 40
1.125
309
GRIDFORMAT_END
 95
       16
302
GRIDFORMAT
  1
GRIDFORMAT_BEGIN
 90
        0
 91
        1
 62
     0
 92
       -2
340
14
 93
        0
 40
1.125
309
GRIDFORMAT_END
 95
       32
302
GRIDFORMAT
  1
GRIDFORMAT_BEGIN
 90
        0
 91
        1
 62
     0
 92
       -2
340
14
 93
        0
 40
1.125
309
GRIDFORMAT_END
309
TABLEFORMAT_END
  1
CELLSTYLE_BEGIN
 90
        3
 91
        2
300
_DATA
309
CELLSTYLE_END
  0
ENDSEC
  0
SECTION
  2
ACDSDATA
 70
     2
 71
     2
  0
ACDSSCHEMA
 90
        0
  1
AcDb_Thumbnail_Schema
  2
AcDbDs::ID
280
    10
 91
        8
  2
Thumbnail_Data
280
    15
 91
        0
101
ACDSRECORD
 95
        0
 90
        1
  2
AcDbDs::TreatedAsObjectData
280
     1
291
     1
101
ACDSRECORD
 95
        0
 90
        2
  2
AcDbDs::Legacy
280
     1
291
     1
101
ACDSRECORD
  1
AcDbDs::ID
 90
        3
  2
AcDs:Indexable
280
     1
291
     1
101
ACDSRECORD
  1
AcDbDs::ID
 90
        4
  2
AcDbDs::HandleAttribute
280
     7
282
     1
  0
ACDSSCHEMA
 90
        1
  1
AcDbDs::TreatedAsObjectDataSchema
  2
AcDbDs::TreatedAsObjectData
280
     1
 91
        0
  0
ACDSSCHEMA
 90
        2
  1
AcDbDs::LegacySchema
  2
AcDbDs::Legacy
280
     1
 91
        0
  0
ACDSSCHEMA
 90
        3
  1
AcDbDs::IndexedPropertySchema
  2
AcDs:Indexable
280
     1
 91
        0
  0
ACDSSCHEMA
 90
        4
  1
AcDbDs::HandleAttributeSchema
  2
AcDbDs::HandleAttribute
280
     7
 91
        1
284
     1
  0
ACDSRECORD
 90
        0
  2
AcDbDs::ID
280
    10
320
23D88
  2
Thumbnail_Data
280
    15
 94
     1637
310
89504E470D0A1A0A0000000D4948445200000100000000B5080300000087DCD12600000300504C5445FFFFFF000000C8C8C80000000000000000000000000000000000000000000000000000330000660000990000CC0000FF0033000033330033660033990033CC0033FF0066000066330066660066990066CC0066FF0099
310
000099330099660099990099CC0099FF00CC0000CC3300CC6600CC9900CCCC00CCFF00FF0000FF3300FF6600FF9900FFCC00FFFF3300003300333300663300993300CC3300FF3333003333333333663333993333CC3333FF3366003366333366663366993366CC3366FF3399003399333399663399993399CC3399FF33CC00
310
33CC3333CC6633CC9933CCCC33CCFF33FF0033FF3333FF6633FF9933FFCC33FFFF6600006600336600666600996600CC6600FF6633006633336633666633996633CC6633FF6666006666336666666666996666CC6666FF6699006699336699666699996699CC6699FF66CC0066CC3366CC6666CC9966CCCC66CCFF66FF0066
310
FF3366FF6666FF9966FFCC66FFFF9900009900339900669900999900CC9900FF9933009933339933669933999933CC9933FF9966009966339966669966999966CC9966FF9999009999339999669999999999CC9999FF99CC0099CC3399CC6699CC9999CCCC99CCFF99FF0099FF3399FF6699FF9999FFCC99FFFFCC0000CC00
310
33CC0066CC0099CC00CCCC00FFCC3300CC3333CC3366CC3399CC33CCCC33FFCC6600CC6633CC6666CC6699CC66CCCC66FFCC9900CC9933CC9966CC9999CC99CCCC99FFCCCC00CCCC33CCCC66CCCC99CCCCCCCCCCFFCCFF00CCFF33CCFF66CCFF99CCFFCCCCFFFFFF0000FF0033FF0066FF0099FF00CCFF00FFFF3300FF3333
310
FF3366FF3399FF33CCFF33FFFF6600FF6633FF6666FF6699FF66CCFF66FFFF9900FF9933FF9966FF9999FF99CCFF99FFFFCC00FFCC33FFCC66FFCC99FFCCCCFFCCFFFFFF00FFFF33FFFF66FFFF99FFFFCCFFFFFF0000000D0D0D1A1A1A2828283535354343435050505D5D5D6B6B6B787878868686939393A1A1A1AEAEAEBB
310
BBBBC9C9C9D6D6D6E4E4E4F1F1F1FFFFFF000000000000000000000000000000000000000000000000000000000000B0E2D235000002DE4944415478DAED9D516EAB301045BD83EC7F33F3C34EFC9D4594B4899AF70AB16106C3B5CFAD2A351225F8F88C638CD5A6440821841042082184104208218490EFE40EE203100CF4
310
7E544FDD0F6A0200009026E58400103600007A00F2E000F2E006641F00B3F600AC9C7FAEF3F3A1D97627FD7DB336008AA7B0FAC31DD3565B3C7D0B00F752ACFAF09CEFBB731E8040033C97DA83011E01BA30C075A51D18E0E9FF1E0C702E5CE81BE01340DF00A700491D80B7FDE701A8B0B3E6706701BCDE451640D6051052
310
02D9BFF4A83D06042CBD4A8F010105A05D02116BEFCA068408206C400E79F8226C4048FF0B1B1023C0CA750818908304386D59DC6B40D4D3573B6D59DC07208702D02B81B00250BD19EA0080AB0472DCFE0BC99BA1C0F66B4E84020B40B2042205903420B2FF150D081540D0801C2B809E01B102E819102D809A01397A0BAA
310
0140AA04C20B40AC04C2FB5FCD8003049032E00001B40C38420025038E10E0C48FC16D5B651FDB611DFB612FB85576C7298F1060C5C72B96C041ED3F6B557841BBBF05B2AD62CAE7ABFFAD16003E5D576951746B3B2F6840EC7679D51258ECABE58EDB33BC27DB5D384D0D58BB1A6F095CDB808B0700000000000000000000
310
0000000000000000000000000000000000000080B600ECB1646F2303783DDED9054F00C0ED27E9F9FDFBC37F2FECB604A6B4E741C180F786A6B4C4E2F7C53B80E29FC3AD7F2E76E91298E6AF2D0FF9E44AA06E1CF8190BB735CEFA1804F737AF6F00EF3BBB2AB77C61407F067CE8FC9E0C589E05AD6C2DB1FE0C78DBE833E8
310
CD903D6F073A05509E0A4FB769BAD93C156E2FC135A6C2F35C7066608F17AD09B400506ED23C159E5EDBD98704F01A05529F63401D00EB19C0DA3466619BEB00067C6A709706ACADE46CDEEFAE6B40FDB830EA4CF0C40000000000407B00C7FEE72C00008031605C03000000C680A10C000000B81700000000000000000000
310
00000000007012800E920821841042082184104208218410F2CC17E090B5E86E49F2CA0000000049454E44AE4260824FF1E80CC02722AE8774CD01787702F3FC642F2900878706410774A08410420821841042082184104208A155FF00D3A2C4FD8EC053B80000000049454E44AE426082
  0
ACDSRECORD
 90
        0
  2
AcDbDs::ID
280
    10
320
22
  2
Thumbnail_Data
280
    15
 94
     2761
310
89504E470D0A1A0A0000000D49484452000001000000007408030000005D681C3700000300504C5445000000000000C8C8C80000000000000000000000000000000000000000000000000000330000660000990000CC0000FF0033000033330033660033990033CC0033FF0066000066330066660066990066CC0066FF0099
310
000099330099660099990099CC0099FF00CC0000CC3300CC6600CC9900CCCC00CCFF00FF0000FF3300FF6600FF9900FFCC00FFFF3300003300333300663300993300CC3300FF3333003333333333663333993333CC3333FF3366003366333366663366993366CC3366FF3399003399333399663399993399CC3399FF33CC00
310
33CC3333CC6633CC9933CCCC33CCFF33FF0033FF3333FF6633FF9933FFCC33FFFF6600006600336600666600996600CC6600FF6633006633336633666633996633CC6633FF6666006666336666666666996666CC6666FF6699006699336699666699996699CC6699FF66CC0066CC3366CC6666CC9966CCCC66CCFF66FF0066
310
FF3366FF6666FF9966FFCC66FFFF9900009900339900669900999900CC9900FF9933009933339933669933999933CC9933FF9966009966339966669966999966CC9966FF9999009999339999669999999999CC9999FF99CC0099CC3399CC6699CC9999CCCC99CCFF99FF0099FF3399FF6699FF9999FFCC99FFFFCC0000CC00
310
33CC0066CC0099CC00CCCC00FFCC3300CC3333CC3366CC3399CC33CCCC33FFCC6600CC6633CC6666CC6699CC66CCCC66FFCC9900CC9933CC9966CC9999CC99CCCC99FFCCCC00CCCC33CCCC66CCCC99CCCCCCCCCCFFCCFF00CCFF33CCFF66CCFF99CCFFCCCCFFFFFF0000FF0033FF0066FF0099FF00CCFF00FFFF3300FF3333
310
FF3366FF3399FF33CCFF33FFFF6600FF6633FF6666FF6699FF66CCFF66FFFF9900FF9933FF9966FF9999FF99CCFF99FFFFCC00FFCC33FFCC66FFCC99FFCCCCFFCCFFFFFF00FFFF33FFFF66FFFF99FFFFCCFFFFFF0000000D0D0D1A1A1A2828283535354343435050505D5D5D6B6B6B787878868686939393A1A1A1AEAEAEBB
310
BBBBC9C9C9D6D6D6E4E4E4F1F1F1FFFFFF00000000000000000000000000000000000000000000000000000000000008F1915C000001EA4944415478DAEDDD4B6EC3300C8461DDC0F7BF0C37BD8EB6DCB729823EE12691C68D87FA09A4ABC28D3E8F6847169AD61EA817936A47D5714736799B000030579900D40788FDCA8C
310
E132021007206E1CF47C007DAF32FB40F901EC0760E86FD649C0D0F92F9480D12B409504E460007A1980DE979E02E3774055007219006D0778AB1A007D1D809076801A3D209702D03680123D606EFCFE3D607215C47F0A4C06C03E01B3CB6071CCDBFCB704E46C00BADD9AA0EE16E0E378E1DB03A6CFBF790F10AC835B5F05
310
521000F304B4C513D0D74E80E449987102241DC039019A27A1BE09D09C7FDF04A89E84BB26205501704D402E9E005D004C13A0DB0BE3990061002C13A0DC0C659900E1F9374C40C4C466B002BBC40ED90DE8D503F289633F03408E855912FED3AD08DD3FD4FD5FB60388B6F81478ACB96BFBBFC714289E8013140000000000
310
0000000000000000000000A73E72C83F3C7B01BCAF871C6060047059EFD11398F58081BDB03E00DBAF6A5F5FB145DB2E3F422A70228088EB587F0EFD1BC1B61506B8EB3A10657BC0AD337B5DF62E0DB0F70CA0CDADFD5799029F17820512F0C7C3203E0B000000000000000000000000000000000000000000600FF0CC7F99
310
0F0000F4807A09008029B05A0200E04E10000000000000000000000000CE0350F02B375F018BFA845678C051FF0000000049454E44AE4260829A394E1D789482839D8B5D36F777BE530EE2FF3D007B95F07945E4C7E3B52AC06604DA8F96A09B7D8341F568492007AC53E17CD9D9F0733C2322A84F85CBAD94FB5438A7988F
310
B6EA54789E093E00DC17040109D4BB344F86CBBAB718D1002D639A978970CC225859BEC22D6EB50ED8E11115C00557B7B5296DFAB6CEA303CEA53FFE879FECE33963F30000000049454E44AE426082E002E7E802FC01983D6176371C6D267B5082602A83154700F7D2E0DDB920EE956065D283218018FEB783210C00F1CA6F
310
2D60E72E9A30005A2B6ADC00D4E703F2A0081004B73342B1FFDBC5251E00B2F2BF0AC0DD4D8F045B0035DFCF0184FB0AC202B85F08B1581B6C02A09678014801E0360BD0CEBD124E3583E096057601D4AA447600F65C20B77CC80D1289865271DE040A80103FB56CBF49FC32C202A0DCED87FD85B777158203E0BDDE1C8E46
310
702E60FF7DD4C6005754C30188B18F5CB32B00CBDE40E8410066A7800760770D600150E6963276EDDCF4FBD5082E0886F963DF9C7A02F01AB50F600EAA0178D7F2004CF31DCE02424BDD367A0060F2B6B0CF63381E2B008A7DD3222FF8D30C892F85490C0BC002D0F976F969471980DDAFFC155836163000740DE0F9FE65E6
310
373BFD108EAC2C38F10000000049454E44AE426082426082F97377C1559E6F06405FE3A1805FE260BA2B7293E8EEE0F53AA6D0D1A3013100880B13D72B371D00AEAEC13B34C003F0672E7069F495AE8200749A38D18C580F00D600CA1124D2F5CB7E630154A134BEC1009003E2D802693F78B2B1EF9802803527FEEE0CAAA6
310
067F743DC906548D17CE39442AB9FF5DDEE0CA32F4BC74DF927E0F005E9CF4261F5C2EC837659217A8828CAB9D020E809438D14D056B6234E61B4135D31470B7A2582E50F599003705A476D802C02BEE1D40D303203596EF0660119405F0C008A2DB0FABF70CE0811B4CF3BE1D03689CF2AF1E404E5D779206347D1AA04CDF
310
47AD024058E24EA94C05709F0B5495617B301200CC3B0578F90355E70F6C9BFEC50996D00095006049003F00206BA372ACF2F60754A3F6075032C4396949004124980030CEE4C4D3EE9106380AB46C08793B442A331280282501F0350F0763060D182E883E02A040CD262E19C20E00CC3805B0473C8081B2F84B95AC0C4570
310
7B3D4D0AE0650DE87583D8FB4559957844A54B01C84E86149437827D25B121004974B03000197604C02AA6C11900E4AAEAC70168ABAF74FAFB7769001C0ABB8607601605A01C7DDBF8B6F27E005C185C14801866FBFC6D651D00D4A200DA2F1C50FC541AC0A374A7782ED0F487814F6C0017E37DE35A1C80D1CF6A3E135529
310
0D69A603A8EB5A00FCB2521E00C04C00E2CDD216C02F2763A780A488DAFDB3959E8FCCFC175C030024E59B0500895B42CAB1017D8BEA74E3BFBEBED037BE6600C0BBC066000092DDBA051402F03B914C0D081B1208FDCB52680A18D9ED350300D92C6D4C0BE08906049BA5549B95E82822F200A8A31000FB37D2A2EF2C0078
310
13BBAC2B960D854B02787537E7332F00EDB73E745C136FA50530F4E65D605412C02211D52B81503F80723660CEC2C2B81DD013364AAE02C01B64F6EDE8871C72C821871C72C8219F2AFF036EA05C434333486F0000000049454E44AE426082C611EEA204450000000049454E44AE4260826C369B3FDD814A7C34F1F13F5D76
310
1786CC97B901583FAD9F9EBA23C44374DD657739BBF8DC003C9DAB0820028800660EC07BBFDE1BAED71B0836FE3C4F006BEFF1D721F0D1042ABFD9AC83DB4700707497F134BB7900540F4677A831D6F305DA7A83007C06B63CBE700AB0C61C9C08CC6F22B4F6768E205ED6D8F0C1E6D78148FF7AF120F0985D17C06A616D37
310
C93AF196BF095D00F35FC6D54753992180BACEB2AAAA795DD54D53D515C4B38A433CAB9ABAE143CB0747019D616E00DC1BD949CA24C3C0100685F959C0A37F3718151515151575DBFA1FFD489BAEDD3066680000000049454E44AE426082
  0
ENDSEC
  0
EOF
