  0
SECTION
  2
HEADER
  9
$ACADVER
  1
AC1027
  9
$ACADMAINTVER
 70
     8
  9
$DWGCODEPAGE
  3
ANSI_1252
  9
$LASTSAVEDBY
  1
Myra
  9
$REQUIREDVERSIONS
160
                 0
  9
$INSBASE
 10
0.0
 20
0.0
 30
0.0
  9
$EXTMIN
 10
15863.24692081434
 20
5561.827501574637
 30
-0.0015258207003583
  9
$EXTMAX
 10
18617.61377670543
 20
7444.622471796519
 30
0.0000000349246037
  9
$LIMMIN
 10
0.0
 20
0.0
  9
$LIMMAX
 10
420.0
 20
297.0
  9
$ORTHOMODE
 70
     1
  9
$REGENMODE
 70
     1
  9
$FILLMODE
 70
     1
  9
$QTEXTMODE
 70
     0
  9
$MIRRTEXT
 70
     0
  9
$LTSCALE
 40
1.0
  9
$ATTMODE
 70
     1
  9
$TEXTSIZE
 40
2.5
  9
$TRACEWID
 40
1.0
  9
$TEXTSTYLE
  7
Standard
  9
$CLAYER
  8
Hulplijnen
  9
$CELTYPE
  6
ByLayer
  9
$CECOLOR
 62
   256
  9
$CELTSCALE
 40
1.0
  9
$DISPSILH
 70
     0
  9
$DIMSCALE
 40
50.0
  9
$DIMASZ
 40
10.0
  9
$DIMEXO
 40
25.0
  9
$DIMDLI
 40
5.0
  9
$DIMRND
 40
0.0
  9
$DIMDLE
 40
10.0
  9
$DIMEXE
 40
15.0
  9
$DIMTP
 40
0.0
  9
$DIMTM
 40
0.0
  9
$DIMTXT
 40
15.0
  9
$DIMCEN
 40
1.0
  9
$DIMTSZ
 40
0.0
  9
$DIMTOL
 70
     0
  9
$DIMLIM
 70
     0
  9
$DIMTIH
 70
     1
  9
$DIMTOH
 70
     1
  9
$DIMSE1
 70
     0
  9
$DIMSE2
 70
     0
  9
$DIMTAD
 70
     0
  9
$DIMZIN
 70
     0
  9
$DIMBLK
  1
Oblique
  9
$DIMASO
 70
     1
  9
$DIMSHO
 70
     1
  9
$DIMPOST
  1

  9
$DIMAPOST
  1

  9
$DIMALT
 70
     0
  9
$DIMALTD
 70
     2
  9
$DIMALTF
 40
25.4
  9
$DIMLFAC
 40
1.0
  9
$DIMTOFL
 70
     0
  9
$DIMTVP
 40
0.0
  9
$DIMTIX
 70
     0
  9
$DIMSOXD
 70
     0
  9
$DIMSAH
 70
     0
  9
$DIMBLK1
  1

  9
$DIMBLK2
  1

  9
$DIMSTYLE
  2
Maatvoering 2 detail 1-5
  9
$DIMCLRD
 70
     0
  9
$DIMCLRE
 70
     0
  9
$DIMCLRT
 70
     0
  9
$DIMTFAC
 40
1.0
  9
$DIMGAP
 40
20.0
  9
$DIMJUST
 70
     0
  9
$DIMSD1
 70
     0
  9
$DIMSD2
 70
     0
  9
$DIMTOLJ
 70
     1
  9
$DIMTZIN
 70
     0
  9
$DIMALTZ
 70
     0
  9
$DIMALTTZ
 70
     0
  9
$DIMUPT
 70
     0
  9
$DIMDEC
 70
     0
  9
$DIMTDEC
 70
     0
  9
$DIMALTU
 70
     2
  9
$DIMALTTD
 70
     2
  9
$DIMTXSTY
  7
Standard
  9
$DIMAUNIT
 70
     0
  9
$DIMADEC
 70
     0
  9
$DIMALTRND
 40
0.0
  9
$DIMAZIN
 70
     0
  9
$DIMDSEP
 70
    44
  9
$DIMATFIT
 70
     3
  9
$DIMFRAC
 70
     0
  9
$DIMLDRBLK
  1

  9
$DIMLUNIT
 70
     2
  9
$DIMLWD
 70
    -2
  9
$DIMLWE
 70
    -2
  9
$DIMTMOVE
 70
     0
  9
$DIMFXL
 40
100.0
  9
$DIMFXLON
 70
     0
  9
$DIMJOGANG
 40
0.7853981633974483
  9
$DIMTFILL
 70
     0
  9
$DIMTFILLCLR
 70
     0
  9
$DIMARCSYM
 70
     0
  9
$DIMLTYPE
  6

  9
$DIMLTEX1
  6

  9
$DIMLTEX2
  6

  9
$DIMTXTDIRECTION
 70
     0
  9
$LUNITS
 70
     2
  9
$LUPREC
 70
     1
  9
$SKETCHINC
 40
1.0
  9
$FILLETRAD
 40
4.0
  9
$AUNITS
 70
     0
  9
$AUPREC
 70
     0
  9
$MENU
  1
.
  9
$ELEVATION
 40
0.0
  9
$PELEVATION
 40
0.0
  9
$THICKNESS
 40
0.0
  9
$LIMCHECK
 70
     0
  9
$CHAMFERA
 40
0.0
  9
$CHAMFERB
 40
1.749166488146784
  9
$CHAMFERC
 40
0.0
  9
$CHAMFERD
 40
0.0
  9
$SKPOLY
 70
     0
  9
$TDCREATE
 40
2456693.409240938
  9
$TDUCREATE
 40
2456693.367574271
  9
$TDUPDATE
 40
2458540.442067222
  9
$TDUUPDATE
 40
2458540.400400556
  9
$TDINDWG
 40
11.1015633912
  9
$TDUSRTIMER
 40
11.1015624884
  9
$USRTIMER
 70
     1
  9
$ANGBASE
 50
0.0
  9
$ANGDIR
 70
     0
  9
$PDMODE
 70
     0
  9
$PDSIZE
 40
0.0
  9
$PLINEWID
 40
100.0
  9
$SPLFRAME
 70
     0
  9
$SPLINETYPE
 70
     6
  9
$SPLINESEGS
 70
     8
  9
$HANDSEED
  5
24B09
  9
$SURFTAB1
 70
     6
  9
$SURFTAB2
 70
     6
  9
$SURFTYPE
 70
     6
  9
$SURFU
 70
     6
  9
$SURFV
 70
     6
  9
$UCSBASE
  2

  9
$UCSNAME
  2

  9
$UCSORG
 10
0.0
 20
0.0
 30
0.0
  9
$UCSXDIR
 10
1.0
 20
0.0
 30
0.0
  9
$UCSYDIR
 10
0.0
 20
1.0
 30
0.0
  9
$UCSORTHOREF
  2

  9
$UCSORTHOVIEW
 70
     0
  9
$UCSORGTOP
 10
0.0
 20
0.0
 30
0.0
  9
$UCSORGBOTTOM
 10
0.0
 20
0.0
 30
0.0
  9
$UCSORGLEFT
 10
0.0
 20
0.0
 30
0.0
  9
$UCSORGRIGHT
 10
0.0
 20
0.0
 30
0.0
  9
$UCSORGFRONT
 10
0.0
 20
0.0
 30
0.0
  9
$UCSORGBACK
 10
0.0
 20
0.0
 30
0.0
  9
$PUCSBASE
  2

  9
$PUCSNAME
  2

  9
$PUCSORG
 10
0.0
 20
0.0
 30
0.0
  9
$PUCSXDIR
 10
1.0
 20
0.0
 30
0.0
  9
$PUCSYDIR
 10
0.0
 20
1.0
 30
0.0
  9
$PUCSORTHOREF
  2

  9
$PUCSORTHOVIEW
 70
     0
  9
$PUCSORGTOP
 10
0.0
 20
0.0
 30
0.0
  9
$PUCSORGBOTTOM
 10
0.0
 20
0.0
 30
0.0
  9
$PUCSORGLEFT
 10
0.0
 20
0.0
 30
0.0
  9
$PUCSORGRIGHT
 10
0.0
 20
0.0
 30
0.0
  9
$PUCSORGFRONT
 10
0.0
 20
0.0
 30
0.0
  9
$PUCSORGBACK
 10
0.0
 20
0.0
 30
0.0
  9
$USERI1
 70
     0
  9
$USERI2
 70
     0
  9
$USERI3
 70
     0
  9
$USERI4
 70
     0
  9
$USERI5
 70
     0
  9
$USERR1
 40
0.0
  9
$USERR2
 40
0.0
  9
$USERR3
 40
0.0
  9
$USERR4
 40
0.0
  9
$USERR5
 40
0.0
  9
$WORLDVIEW
 70
     1
  9
$SHADEDGE
 70
     3
  9
$SHADEDIF
 70
    70
  9
$TILEMODE
 70
     1
  9
$MAXACTVP
 70
    64
  9
$PINSBASE
 10
0.0
 20
0.0
 30
0.0
  9
$PLIMCHECK
 70
     0
  9
$PEXTMIN
 10
28.68718261718749
 20
19.6363175392151
 30
0.0
  9
$PEXTMAX
 10
258.1846435546875
 20
176.7268578529358
 30
0.0
  9
$PLIMMIN
 10
-5.027069091796875
 20
-6.805083274841308
  9
$PLIMMAX
 10
291.89892578125
 20
203.1682443618775
  9
$UNITMODE
 70
     0
  9
$VISRETAIN
 70
     1
  9
$PLINEGEN
 70
     0
  9
$PSLTSCALE
 70
     1
  9
$TREEDEPTH
 70
  3020
  9
$CMLSTYLE
  2
Standard
  9
$CMLJUST
 70
     0
  9
$CMLSCALE
 40
20.0
  9
$PROXYGRAPHICS
 70
     1
  9
$MEASUREMENT
 70
     1
  9
$CELWEIGHT
370
    -1
  9
$ENDCAPS
280
     0
  9
$JOINSTYLE
280
     0
  9
$LWDISPLAY
290
     0
  9
$INSUNITS
 70
     4
  9
$HYPERLINKBASE
  1

  9
$STYLESHEET
  1
DUOFOR kleur.ctb
  9
$XEDIT
290
     1
  9
$CEPSNTYPE
380
     0
  9
$PSTYLEMODE
290
     1
  9
$FINGERPRINTGUID
  2
{6BD09C20-B97A-4C30-9D96-FA597952C05B}
  9
$VERSIONGUID
  2
{C3B67FEC-C096-4666-9F02-7F2293462AF5}
  9
$EXTNAMES
290
     1
  9
$PSVPSCALE
 40
0.0
  9
$OLESTARTUP
290
     0
  9
$SORTENTS
280
   127
  9
$INDEXCTL
280
     0
  9
$HIDETEXT
280
     1
  9
$XCLIPFRAME
280
     2
  9
$HALOGAP
280
     0
  9
$OBSCOLOR
 70
   257
  9
$OBSLTYPE
280
     0
  9
$INTERSECTIONDISPLAY
280
     0
  9
$INTERSECTIONCOLOR
 70
   257
  9
$DIMASSOC
280
     2
  9
$PROJECTNAME
  1

  9
$CAMERADISPLAY
290
     0
  9
$LENSLENGTH
 40
50.0
  9
$CAMERAHEIGHT
 40
0.0
  9
$STEPSPERSEC
 40
2.0
  9
$STEPSIZE
 40
6.0
  9
$3DDWFPREC
 40
2.0
  9
$PSOLWIDTH
 40
5.0
  9
$PSOLHEIGHT
 40
80.0
  9
$LOFTANG1
 40
1.570796326794896
  9
$LOFTANG2
 40
1.570796326794896
  9
$LOFTMAG1
 40
0.0
  9
$LOFTMAG2
 40
0.0
  9
$LOFTPARAM
 70
     7
  9
$LOFTNORMALS
280
     1
  9
$LATITUDE
 40
37.795
  9
$LONGITUDE
 40
-122.394
  9
$NORTHDIRECTION
 40
0.0
  9
$TIMEZONE
 70
 -8000
  9
$LIGHTGLYPHDISPLAY
280
     1
  9
$TILEMODELIGHTSYNCH
280
     1
  9
$CMATERIAL
347
EC
  9
$SOLIDHIST
280
     1
  9
$SHOWHIST
280
     1
  9
$DWFFRAME
280
     2
  9
$DGNFRAME
280
     0
  9
$REALWORLDSCALE
290
     1
  9
$INTERFERECOLOR
 62
     1
  9
$INTERFEREOBJVS
345
F9
  9
$INTERFEREVPVS
346
F6
  9
$CSHADOW
280
     0
  9
$SHADOWPLANELOCATION
 40
0.0
  0
ENDSEC
  0
SECTION
  2
CLASSES
  0
CLASS
  1
ACDBDICTIONARYWDFLT
  2
AcDbDictionaryWithDefault
  3
ObjectDBX Classes
 90
        0
 91
        1
280
     0
281
     0
  0
CLASS
  1
DICTIONARYVAR
  2
AcDbDictionaryVar
  3
ObjectDBX Classes
 90
        0
 91
       13
280
     0
281
     0
  0
CLASS
  1
TABLESTYLE
  2
AcDbTableStyle
  3
ObjectDBX Classes
 90
     4095
 91
        1
280
     0
281
     0
  0
CLASS
  1
MATERIAL
  2
AcDbMaterial
  3
ObjectDBX Classes
 90
     1153
 91
        3
280
     0
281
     0
  0
CLASS
  1
VISUALSTYLE
  2
AcDbVisualStyle
  3
ObjectDBX Classes
 90
     4095
 91
       24
280
     0
281
     0
  0
CLASS
  1
SCALE
  2
AcDbScale
  3
ObjectDBX Classes
 90
     1153
 91
       17
280
     0
281
     0
  0
CLASS
  1
MLEADERSTYLE
  2
AcDbMLeaderStyle
  3
ACDB_MLEADERSTYLE_CLASS
 90
     4095
 91
        1
280
     0
281
     0
  0
CLASS
  1
CELLSTYLEMAP
  2
AcDbCellStyleMap
  3
ObjectDBX Classes
 90
     1152
 91
        1
280
     0
281
     0
  0
CLASS
  1
EXACXREFPANELOBJECT
  2
ExAcXREFPanelObject
  3
EXAC_ESW
 90
     1025
 91
        0
280
     0
281
     0
  0
CLASS
  1
NPOCOLLECTION
  2
AcDbImpNonPersistentObjectsCollection
  3
ObjectDBX Classes
 90
     1153
 91
        0
280
     0
281
     0
  0
CLASS
  1
LAYER_INDEX
  2
AcDbLayerIndex
  3
ObjectDBX Classes
 90
        0
 91
        0
280
     0
281
     0
  0
CLASS
  1
SPATIAL_INDEX
  2
AcDbSpatialIndex
  3
ObjectDBX Classes
 90
        0
 91
        0
280
     0
281
     0
  0
CLASS
  1
IDBUFFER
  2
AcDbIdBuffer
  3
ObjectDBX Classes
 90
        0
 91
        0
280
     0
281
     0
  0
CLASS
  1
SOLID_BACKGROUND
  2
AcDbSolidBackground
  3
SCENEOE
 90
     4095
 91
        0
280
     0
281
     0
  0
CLASS
  1
DIMASSOC
  2
AcDbDimAssoc
  3
"AcDbDimAssoc|Product Desc:     AcDim ARX App For Dimension|Company:          Autodesk, Inc.|WEB Address:      www.autodesk.com"
 90
        0
 91
       16
280
     0
281
     0
  0
CLASS
  1
SORTENTSTABLE
  2
AcDbSortentsTable
  3
ObjectDBX Classes
 90
        0
 91
        3
280
     0
281
     0
  0
CLASS
  1
PLOTSETTINGS
  2
AcDbPlotSettings
  3
ObjectDBX Classes
 90
        0
 91
        1
280
     0
281
     0
  0
CLASS
  1
ACDBSECTIONVIEWSTYLE
  2
AcDbSectionViewStyle
  3
ObjectDBX Classes
 90
     1025
 91
        1
280
     0
281
     0
  0
CLASS
  1
ACDBDETAILVIEWSTYLE
  2
AcDbDetailViewStyle
  3
ObjectDBX Classes
 90
     1025
 91
        1
280
     0
281
     0
  0
CLASS
  1
ACDBASSOCNETWORK
  2
AcDbAssocNetwork
  3
ObjectDBX Classes
 90
     1025
 91
        0
280
     0
281
     0
  0
CLASS
  1
ACDBASSOC2DCONSTRAINTGROUP
  2
AcDbAssoc2dConstraintGroup
  3
ObjectDBX Classes
 90
     1025
 91
        0
280
     0
281
     0
  0
CLASS
  1
ACDBASSOCGEOMDEPENDENCY
  2
AcDbAssocGeomDependency
  3
ObjectDBX Classes
 90
     1025
 91
        0
280
     0
281
     0
  0
CLASS
  1
ACDB_ALDIMOBJECTCONTEXTDATA_CLASS
  2
AcDbAlignedDimensionObjectContextData
  3
ObjectDBX Classes
 90
     1153
 91
       82
280
     0
281
     0
  0
CLASS
  1
IMAGEDEF
  2
AcDbRasterImageDef
  3
ISM
 90
        0
 91
        0
280
     0
281
     0
  0
CLASS
  1
RASTERVARIABLES
  2
AcDbRasterVariables
  3
ISM
 90
        0
 91
        1
280
     0
281
     0
  0
CLASS
  1
IMAGEDEF_REACTOR
  2
AcDbRasterImageDefReactor
  3
ISM
 90
        1
 91
        0
280
     0
281
     0
  0
CLASS
  1
IMAGE
  2
AcDbRasterImage
  3
ISM
 90
     2175
 91
        0
280
     0
281
     1
  0
CLASS
  1
ACSH_SWEEP_CLASS
  2
AcDbShSweep
  3
ObjectDBX Classes
 90
     1153
 91
        0
280
     0
281
     0
  0
CLASS
  1
ACAD_EVALUATION_GRAPH
  2
AcDbEvalGraph
  3
ObjectDBX Classes
 90
     1153
 91
        1
280
     0
281
     0
  0
CLASS
  1
ACSH_HISTORY_CLASS
  2
AcDbShHistory
  3
ObjectDBX Classes
 90
     1153
 91
        0
280
     0
281
     0
  0
CLASS
  1
ACDBVIEWREPSTANDARD
  2
AcDbViewRepStandard
  3
AcModelDocObj
 90
      129
 91
        1
280
     0
281
     0
  0
CLASS
  1
ACAECUSTOBJ
  2
AcAeEditorObj
  3
AcAeEditorObj
 90
     1024
 91
        0
280
     0
281
     0
  0
CLASS
  1
WIPEOUTVARIABLES
  2
AcDbWipeoutVariables
  3
"WipeOut|Product Desc:     WipeOut Dbx Application|Company:          Autodesk, Inc.|WEB Address:      www.autodesk.com"
 90
        0
 91
        1
280
     0
281
     0
  0
CLASS
  1
PDFDEFINITION
  2
AcDbPdfDefinition
  3
ObjectDBX Classes
 90
     1153
 91
        0
280
     0
281
     0
  0
CLASS
  1
PDFUNDERLAY
  2
AcDbPdfReference
  3
ObjectDBX Classes
 90
     4095
 91
        0
280
     0
281
     1
  0
CLASS
  1
ACDB_ANGDIMOBJECTCONTEXTDATA_CLASS
  2
AcDbAngularDimensionObjectContextData
  3
ObjectDBX Classes
 90
     1153
 91
        0
280
     0
281
     0
  0
CLASS
  1
ACDB_DYNAMICBLOCKPURGEPREVENTER_VERSION
  2
AcDbDynamicBlockPurgePreventer
  3
ObjectDBX Classes
 90
     1153
 91
        1
280
     0
281
     0
  0
CLASS
  1
GROUND_PLANE_BACKGROUND
  2
AcDbGroundPlaneBackground
  3
SCENEOE
 90
     4095
 91
        0
280
     0
281
     0
  0
CLASS
  1
ACDB_RADIMOBJECTCONTEXTDATA_CLASS
  2
AcDbRadialDimensionObjectContextData
  3
ObjectDBX Classes
 90
     1153
 91
        0
280
     0
281
     0
  0
CLASS
  1
ACDB_DMDIMOBJECTCONTEXTDATA_CLASS
  2
AcDbDiametricDimensionObjectContextData
  3
ObjectDBX Classes
 90
     1153
 91
        2
280
     0
281
     0
  0
ENDSEC
  0
SECTION
  2
TABLES
  0
TABLE
  2
VPORT
  5
8
330
0
100
AcDbSymbolTable
 70
     1
  0
VPORT
  5
EA
330
8
100
AcDbSymbolTableRecord
100
AcDbViewportTableRecord
  2
*Active
 70
     0
 10
0.0
 20
0.0
 11
1.0
 21
1.0
 12
-169.7096658885494
 22
-2387.090931283172
 13
0.0
 23
0.0
 14
10.0
 24
10.0
 15
10.0
 25
10.0
 16
-0.0000000000181899
 26
0.0
 36
89783.14936059669
 17
17410.14001464844
 27
8890.31591796875
 37
0.0
 40
1896.554738579169
 41
2.206097560975609
 42
50.0
 43
0.0
 44
0.0
 50
0.0
 51
0.0
 71
     0
 72
  1000
 73
     1
 74
     3
 75
     0
 76
     0
 77
     0
 78
     2
281
     0
 65
     1
110
0.0
120
0.0
130
0.0
111
1.0
121
0.0
131
0.0
112
0.0
122
1.0
132
0.0
 79
     0
146
0.0
348
F5
 60
     3
 61
     5
292
     1
282
     1
141
0.0
142
0.0
 63
   250
421
  3355443
1001
ACAD_NAV_VCDISPLAY
1070
     3
  0
ENDTAB
  0
TABLE
  2
LTYPE
  5
5
330
0
100
AcDbSymbolTable
 70
     2
  0
LTYPE
  5
14
330
5
100
AcDbSymbolTableRecord
100
AcDbLinetypeTableRecord
  2
ByBlock
 70
     0
  3

 72
    65
 73
     0
 40
0.0
  0
LTYPE
  5
15
330
5
100
AcDbSymbolTableRecord
100
AcDbLinetypeTableRecord
  2
ByLayer
 70
     0
  3

 72
    65
 73
     0
 40
0.0
  0
LTYPE
  5
16
330
5
100
AcDbSymbolTableRecord
100
AcDbLinetypeTableRecord
  2
Continuous
 70
     0
  3
Solid line
 72
    65
 73
     0
 40
0.0
  0
LTYPE
  5
2FC4
330
5
100
AcDbSymbolTableRecord
100
AcDbLinetypeTableRecord
  2
DIVIDEX2
 70
     0
  3
Divide (2x) ________  .  .  ________  .  .  _
 72
    65
 73
     6
 40
63.49999999999999
 49
25.4
 74
     0
 49
-12.7
 74
     0
 49
0.0
 74
     0
 49
-12.7
 74
     0
 49
0.0
 74
     0
 49
-12.7
 74
     0
  0
ENDTAB
  0
TABLE
  2
LAYER
  5
2
102
{ACAD_XDICTIONARY
360
1FF
102
}
330
0
100
AcDbSymbolTable
 70
    12
  0
LAYER
  5
10
102
{ACAD_XDICTIONARY
360
13C
102
}
330
2
100
AcDbSymbolTableRecord
100
AcDbLayerTableRecord
  2
0
 70
     0
 62
     7
  6
Continuous
370
    -3
390
F
347
EE
348
0
  0
LAYER
  5
1927
330
2
100
AcDbSymbolTableRecord
100
AcDbLayerTableRecord
  2
Maatvoering
 70
     0
 62
     1
  6
Continuous
370
    -3
390
F
347
EE
348
0
1001
AcAecLayerStandard
1000

1000

1001
AcCmTransparency
1071
        0
  0
LAYER
  5
1F7D
330
2
100
AcDbSymbolTableRecord
100
AcDbLayerTableRecord
  2
Defpoints
 70
     0
 62
     7
  6
Continuous
290
     0
370
    -3
390
F
347
EE
348
0
  0
LAYER
  5
32C2
330
2
100
AcDbSymbolTableRecord
100
AcDbLayerTableRecord
  2
Hulplijnen
 70
     0
 62
     6
  6
Continuous
290
     0
370
    -3
390
F
347
EE
348
0
1001
AcAecLayerStandard
1000

1000

1001
AcCmTransparency
1071
        0
  0
LAYER
  5
41F7
102
{ACAD_XDICTIONARY
360
41F8
102
}
330
2
100
AcDbSymbolTableRecord
100
AcDbLayerTableRecord
  2
Breeklijn
 70
     0
 62
     7
  6
DIVIDEX2
370
    -3
390
F
347
EE
348
0
  0
LAYER
  5
41FC
330
2
100
AcDbSymbolTableRecord
100
AcDbLayerTableRecord
  2
Profiel
 70
     0
 62
     7
  6
Continuous
370
    -3
390
F
347
EE
348
0
  0
LAYER
  5
4959
330
2
100
AcDbSymbolTableRecord
100
AcDbLayerTableRecord
  2
Arcering
 70
     0
 62
     8
  6
Continuous
370
    13
390
F
347
EE
348
0
1001
AcAecLayerStandard
1000

1000

1001
AcCmTransparency
1071
        0
  0
LAYER
  5
B4A3
330
2
100
AcDbSymbolTableRecord
100
AcDbLayerTableRecord
  2
Aanzichtlijnen
 70
     0
 62
     1
  6
Continuous
370
    -3
390
F
347
EE
348
0
1001
AcAecLayerStandard
1000

1000

1001
AcCmTransparency
1071
        0
  0
LAYER
  5
E254
330
2
100
AcDbSymbolTableRecord
100
AcDbLayerTableRecord
  2
Sleufgaten
 70
     0
 62
     1
  6
Continuous
370
    -3
390
F
347
EE
348
0
1001
AcAecLayerStandard
1000

1000

1001
AcCmTransparency
1071
        0
  0
ENDTAB
  0
TABLE
  2
STYLE
  5
3
330
0
100
AcDbSymbolTable
 70
     1
  0
STYLE
  5
11
330
3
100
AcDbSymbolTableRecord
100
AcDbTextStyleTableRecord
  2
Standard
 70
     0
 40
0.0
 41
1.0
 50
0.0
 71
     0
 42
2.5
  3
arial.ttf
  4

1001
ACAD
1000
Arial
1071
       34
  0
ENDTAB
  0
TABLE
  2
VIEW
  5
6
330
0
100
AcDbSymbolTable
 70
     1
  0
ENDTAB
  0
TABLE
  2
UCS
  5
7
330
0
100
AcDbSymbolTable
 70
     0
  0
ENDTAB
  0
TABLE
  2
APPID
  5
9
330
0
100
AcDbSymbolTable
 70
    31
  0
APPID
  5
12
330
9
100
AcDbSymbolTableRecord
100
AcDbRegAppTableRecord
  2
ACAD
 70
     0
  0
APPID
  5
9E
330
9
100
AcDbSymbolTableRecord
100
AcDbRegAppTableRecord
  2
ACAD_PSEXT
 70
     0
  0
APPID
  5
133
330
9
100
AcDbSymbolTableRecord
100
AcDbRegAppTableRecord
  2
AcadAnnoPO
 70
     0
  0
APPID
  5
134
330
9
100
AcDbSymbolTableRecord
100
AcDbRegAppTableRecord
  2
AcadAnnotative
 70
     0
  0
APPID
  5
135
330
9
100
AcDbSymbolTableRecord
100
AcDbRegAppTableRecord
  2
ACAD_DSTYLE_DIMJAG
 70
     0
  0
APPID
  5
136
330
9
100
AcDbSymbolTableRecord
100
AcDbRegAppTableRecord
  2
ACAD_DSTYLE_DIMTALN
 70
     0
  0
APPID
  5
165
330
9
100
AcDbSymbolTableRecord
100
AcDbRegAppTableRecord
  2
ACAD_MLEADERVER
 70
     0
  0
APPID
  5
21C
330
9
100
AcDbSymbolTableRecord
100
AcDbRegAppTableRecord
  2
ACAD_EXEMPT_FROM_CAD_STANDARDS
 70
     0
  0
APPID
  5
26F
330
9
100
AcDbSymbolTableRecord
100
AcDbRegAppTableRecord
  2
GradientColor1ACI
 70
     0
  0
APPID
  5
270
330
9
100
AcDbSymbolTableRecord
100
AcDbRegAppTableRecord
  2
GradientColor2ACI
 70
     0
  0
APPID
  5
2F6
330
9
100
AcDbSymbolTableRecord
100
AcDbRegAppTableRecord
  2
HATCHBACKGROUNDCOLOR
 70
     0
  0
APPID
  5
EF5
330
9
100
AcDbSymbolTableRecord
100
AcDbRegAppTableRecord
  2
AcAecLayerStandard
 70
     0
  0
APPID
  5
EF6
330
9
100
AcDbSymbolTableRecord
100
AcDbRegAppTableRecord
  2
AcCmTransparency
 70
     0
  0
APPID
  5
2ADB
330
9
100
AcDbSymbolTableRecord
100
AcDbRegAppTableRecord
  2
ACAD_NAV_VCDISPLAY
 70
     0
  0
APPID
  5
2BB2
330
9
100
AcDbSymbolTableRecord
100
AcDbRegAppTableRecord
  2
ACAD_DSTYLE_DIMBREAK
 70
     0
  0
APPID
  5
2C93
330
9
100
AcDbSymbolTableRecord
100
AcDbRegAppTableRecord
  2
AcadAnnoMonitorAlertIconDisabled
 70
     0
  0
APPID
  5
2F78
330
9
100
AcDbSymbolTableRecord
100
AcDbRegAppTableRecord
  2
ACAD_DSTYLE_DIMJAG_POSITION
 70
     0
  0
APPID
  5
3590
330
9
100
AcDbSymbolTableRecord
100
AcDbRegAppTableRecord
  2
GBX_
 70
     0
  0
APPID
  5
38FB
330
9
100
AcDbSymbolTableRecord
100
AcDbRegAppTableRecord
  2
AcadAnnoAV
 70
     0
  0
APPID
  5
5D3C
330
9
100
AcDbSymbolTableRecord
100
AcDbRegAppTableRecord
  2
ARCADE_ALFA
 70
     0
  0
APPID
  5
6728
330
9
100
AcDbSymbolTableRecord
100
AcDbRegAppTableRecord
  2
BNS_SPRHATCH
 70
     0
  0
APPID
  5
8CAD
330
9
100
AcDbSymbolTableRecord
100
AcDbRegAppTableRecord
  2
AcLayerTools
 70
     0
  0
APPID
  5
965F
330
9
100
AcDbSymbolTableRecord
100
AcDbRegAppTableRecord
  2
PLOTTRANSPARENCY
 70
     0
  0
APPID
  5
C2EB
330
9
100
AcDbSymbolTableRecord
100
AcDbRegAppTableRecord
  2
ACAUTHENVIRON
 70
     0
  0
APPID
  5
C2EF
330
9
100
AcDbSymbolTableRecord
100
AcDbRegAppTableRecord
  2
AcDbDynamicBlockTrueName
 70
     0
  0
APPID
  5
C2F0
330
9
100
AcDbSymbolTableRecord
100
AcDbRegAppTableRecord
  2
AcDbDynamicBlockGUID
 70
     0
  0
APPID
  5
C53F
330
9
100
AcDbSymbolTableRecord
100
AcDbRegAppTableRecord
  2
AdeskUnderlayLayerOverrideData
 70
     0
  0
APPID
  5
11006
330
9
100
AcDbSymbolTableRecord
100
AcDbRegAppTableRecord
  2
ACAD_DSTYLE_DIMRADIAL_EXTENSION
 70
     0
  0
APPID
  5
1D6D0
330
9
100
AcDbSymbolTableRecord
100
AcDbRegAppTableRecord
  2
ACAD_DIMASSOC_CALC_DIMLFAC
 70
     0
  0
APPID
  5
1D6D1
330
9
100
AcDbSymbolTableRecord
100
AcDbRegAppTableRecord
  2
ACAD_DIMASSOC_DIMLFAC
 70
     0
  0
APPID
  5
1D6D2
330
9
100
AcDbSymbolTableRecord
100
AcDbRegAppTableRecord
  2
ACAD_DIMASSOC_OVERRIDDEN_DIMLFAC
 70
     0
  0
ENDTAB
  0
TABLE
  2
DIMSTYLE
  5
A
330
0
100
AcDbSymbolTable
 70
     5
100
AcDbDimStyleTable
 71
     1
340
D62F
  0
DIMSTYLE
105
1B0
330
A
100
AcDbSymbolTableRecord
100
AcDbDimStyleTableRecord
  2
Standard
 70
     0
340
11
  0
DIMSTYLE
105
D62F
102
{ACAD_REACTORS
330
DBE5
330
E651
330
E56D
330
DFA7
330
D9B2
330
E189
330
E0AB
330
E0BE
330
DF94
330
146D0
330
146E4
330
146F7
330
16EE6
330
1705B
330
176E9
330
17710
102
}
330
A
100
AcDbSymbolTableRecord
100
AcDbDimStyleTableRecord
  2
Maatvoering 2 detail 1-5
 70
     0
 40
50.0
 41
10.0
 42
25.0
 43
5.0
 44
15.0
 46
10.0
 49
100.0
140
15.0
141
1.0
147
20.0
271
     0
272
     0
278
    44
340
11
342
7C45
1001
ACAD_DSTYLE_DIMBREAK
1070
   391
1040
2.0
1001
AcadAnnotative
1000
AnnotativeData
1002
{
1070
     1
1070
     1
1002
}
1001
ACAD_DSTYLE_DIMJAG
1070
   388
1040
200.0
1001
ACAD_DSTYLE_DIMTALN
1070
   392
1070
     0
  0
ENDTAB
  0
TABLE
  2
BLOCK_RECORD
  5
1
330
0
100
AcDbSymbolTable
 70
    95
  0
BLOCK_RECORD
  5
1F
102
{ACAD_XDICTIONARY
360
1CE
102
}
330
1
100
AcDbSymbolTableRecord
100
AcDbBlockTableRecord
  2
*Model_Space
340
22
 70
     0
280
     1
281
     0
  0
BLOCK_RECORD
  5
23FD9
330
1
100
AcDbSymbolTableRecord
100
AcDbBlockTableRecord
  2
*Paper_Space
340
23FDA
 70
     0
280
     1
281
     0
  0
BLOCK_RECORD
  5
43E8
330
1
100
AcDbSymbolTableRecord
100
AcDbBlockTableRecord
  2
Profiel
340
0
310
2800000020000000200000000100080000000000000400000000000000000000000000000000000000000000000080000080000000808000800000008000800080800000C0C0C000C0DCC000F0CAA6000020400000206000002080000020A0000020C0000020E00000400000004020000040400000406000004080000040A0
310
000040C0000040E00000600000006020000060400000606000006080000060A0000060C0000060E00000800000008020000080400000806000008080000080A0000080C0000080E00000A0000000A0200000A0400000A0600000A0800000A0A00000A0C00000A0E00000C0000000C0200000C0400000C0600000C0800000C0
310
A00000C0C00000C0E00000E0000000E0200000E0400000E0600000E0800000E0A00000E0C00000E0E00040000000400020004000400040006000400080004000A0004000C0004000E00040200000402020004020400040206000402080004020A0004020C0004020E000404000004040200040404000404060004040800040
310
40A0004040C0004040E00040600000406020004060400040606000406080004060A0004060C0004060E00040800000408020004080400040806000408080004080A0004080C0004080E00040A0000040A0200040A0400040A0600040A0800040A0A00040A0C00040A0E00040C0000040C0200040C0400040C0600040C08000
310
40C0A00040C0C00040C0E00040E0000040E0200040E0400040E0600040E0800040E0A00040E0C00040E0E00080000000800020008000400080006000800080008000A0008000C0008000E00080200000802020008020400080206000802080008020A0008020C0008020E00080400000804020008040400080406000804080
310
008040A0008040C0008040E00080600000806020008060400080606000806080008060A0008060C0008060E00080800000808020008080400080806000808080008080A0008080C0008080E00080A0000080A0200080A0400080A0600080A0800080A0A00080A0C00080A0E00080C0000080C0200080C0400080C0600080C0
310
800080C0A00080C0C00080C0E00080E0000080E0200080E0400080E0600080E0800080E0A00080E0C00080E0E000C0000000C0002000C0004000C0006000C0008000C000A000C000C000C000E000C0200000C0202000C0204000C0206000C0208000C020A000C020C000C020E000C0400000C0402000C0404000C0406000C0
310
408000C040A000C040C000C040E000C0600000C0602000C0604000C0606000C0608000C060A000C060C000C060E000C0800000C0802000C0804000C0806000C0808000C080A000C080C000C080E000C0A00000C0A02000C0A04000C0A06000C0A08000C0A0A000C0A0C000C0A0E000C0C00000C0C02000C0C04000C0C06000
310
C0C08000C0C0A000F0FBFF00A4A0A000808080000000FF0000FF000000FFFF00FF000000FF00FF00FFFF0000FFFFFF0000000000000000000000000000000000000000000000000000000000000000000000000000000000000000FFFFFFFFFFFFFFFFFFFF000000000000000000000000000000000000000000FFFFFFFFFF
310
FFFFFFFFFFFFFF0000000000000000000000000000000000000000FFFF0000000000000000FFFF0000000000000000000000000000000000000000FFFF0000000000000000FFFF0000000000000000000000000000000000000000FFFF00000000000000FFFF000000000000000000000000000000000000000000FFFF0000
310
0000000000000000000000000000000000000000000000000000000000FFFF00000000000000000000000000000000000000000000000000000000000000FFFFFF00000000000000000000000000000000000000000000000000000000000000FF000000000000000000000000000000000000000000000000000000000000
310
00FF00000000000000000000000000000000000000000000000000000000000000FF00000000000000000000000000000000000000000000000000000000000000FF00000000000000000000000000000000000000000000000000000000000000FF0000000000000000000000000000000000000000000000000000000000
310
0000FF00000000000000000000000000000000000000000000000000000000000000FF00000000000000000000000000000000000000000000000000000000000000FF00000000000000000000000000000000000000000000000000000000000000FF00000000000000000000000000000000000000000000000000000000
310
000000FF00000000000000000000000000000000000000000000000000000000000000FF00000000000000000000000000000000000000000000000000000000000000FF00000000000000000000000000000000000000000000000000000000000000FF000000000000000000000000000000000000000000000000000000
310
00000000FF0000000000000000000000000000000000000000000000000000000000FFFFFF00000000000000000000000000000000000000000000000000000000FFFF0000000000000000000000000000000000000000000000000000000000FFFF0000000000000000000000000000000000000000000000000000000000
310
00FFFF00000000000000FFFF000000000000000000000000000000000000000000FFFF0000000000000000FFFF0000000000000000000000000000000000000000FFFF0000000000000000FFFF0000000000000000000000000000000000000000FFFFFFFFFFFFFFFFFFFFFFFF000000000000000000000000000000000000
310
000000FFFFFFFFFFFFFFFFFFFF00000000000000000000000000000000000000000000000000000000000000000000000000000000000000
102
{BLKREFS
331
20120
102
}
 70
     4
280
     1
281
     0
  0
BLOCK_RECORD
  5
7C45
330
1
100
AcDbSymbolTableRecord
100
AcDbBlockTableRecord
  2
_Oblique
340
0
102
{BLKREFS
331
24A61
331
24A62
331
24A6B
331
24A6C
331
24A75
331
24A76
331
24A7F
331
24A80
331
24A8A
331
24A8B
331
24A93
331
24A94
331
24A9E
331
24A9F
331
24AA8
331
24AA9
331
24AB2
331
24AB3
331
24ABC
331
24ABD
331
24AC6
331
24AC7
331
24ACF
331
24AD0
331
24AD9
331
24ADA
331
24AE3
331
24AE4
331
24AED
331
24AEE
331
24AF8
331
24AF9
102
}
 70
     0
280
     1
281
     0
  0
BLOCK_RECORD
  5
DA45
330
1
100
AcDbSymbolTableRecord
100
AcDbBlockTableRecord
  2
*D2
340
0
 70
     0
280
     1
281
     0
  0
BLOCK_RECORD
  5
DBEB
330
1
100
AcDbSymbolTableRecord
100
AcDbBlockTableRecord
  2
*D3
340
0
 70
     0
280
     1
281
     0
  0
BLOCK_RECORD
  5
DF99
330
1
100
AcDbSymbolTableRecord
100
AcDbBlockTableRecord
  2
*D4
340
0
 70
     0
280
     1
281
     0
  0
BLOCK_RECORD
  5
DFAC
330
1
100
AcDbSymbolTableRecord
100
AcDbBlockTableRecord
  2
*D5
340
0
 70
     0
280
     1
281
     0
  0
BLOCK_RECORD
  5
E0B0
330
1
100
AcDbSymbolTableRecord
100
AcDbBlockTableRecord
  2
*D6
340
0
 70
     0
280
     1
281
     0
  0
BLOCK_RECORD
  5
E0C3
330
1
100
AcDbSymbolTableRecord
100
AcDbBlockTableRecord
  2
*D7
340
0
 70
     0
280
     1
281
     0
  0
BLOCK_RECORD
  5
E18F
330
1
100
AcDbSymbolTableRecord
100
AcDbBlockTableRecord
  2
*D8
340
0
 70
     0
280
     1
281
     0
  0
BLOCK_RECORD
  5
E393
330
1
100
AcDbSymbolTableRecord
100
AcDbBlockTableRecord
  2
sleufgat
340
0
310
2800000020000000200000000100080000000000000400000000000000000000000000000000000000000000000080000080000000808000800000008000800080800000C0C0C000C0DCC000F0CAA6000020400000206000002080000020A0000020C0000020E00000400000004020000040400000406000004080000040A0
310
000040C0000040E00000600000006020000060400000606000006080000060A0000060C0000060E00000800000008020000080400000806000008080000080A0000080C0000080E00000A0000000A0200000A0400000A0600000A0800000A0A00000A0C00000A0E00000C0000000C0200000C0400000C0600000C0800000C0
310
A00000C0C00000C0E00000E0000000E0200000E0400000E0600000E0800000E0A00000E0C00000E0E00040000000400020004000400040006000400080004000A0004000C0004000E00040200000402020004020400040206000402080004020A0004020C0004020E000404000004040200040404000404060004040800040
310
40A0004040C0004040E00040600000406020004060400040606000406080004060A0004060C0004060E00040800000408020004080400040806000408080004080A0004080C0004080E00040A0000040A0200040A0400040A0600040A0800040A0A00040A0C00040A0E00040C0000040C0200040C0400040C0600040C08000
310
40C0A00040C0C00040C0E00040E0000040E0200040E0400040E0600040E0800040E0A00040E0C00040E0E00080000000800020008000400080006000800080008000A0008000C0008000E00080200000802020008020400080206000802080008020A0008020C0008020E00080400000804020008040400080406000804080
310
008040A0008040C0008040E00080600000806020008060400080606000806080008060A0008060C0008060E00080800000808020008080400080806000808080008080A0008080C0008080E00080A0000080A0200080A0400080A0600080A0800080A0A00080A0C00080A0E00080C0000080C0200080C0400080C0600080C0
310
800080C0A00080C0C00080C0E00080E0000080E0200080E0400080E0600080E0800080E0A00080E0C00080E0E000C0000000C0002000C0004000C0006000C0008000C000A000C000C000C000E000C0200000C0202000C0204000C0206000C0208000C020A000C020C000C020E000C0400000C0402000C0404000C0406000C0
310
408000C040A000C040C000C040E000C0600000C0602000C0604000C0606000C0608000C060A000C060C000C060E000C0800000C0802000C0804000C0806000C0808000C080A000C080C000C080E000C0A00000C0A02000C0A04000C0A06000C0A08000C0A0A000C0A0C000C0A0E000C0C00000C0C02000C0C04000C0C06000
310
C0C08000C0C0A000F0FBFF00A4A0A000808080000000FF0000FF000000FFFF00FF000000FF00FF00FFFF0000FFFFFF0000000000000000000000000000000000000000000000000000000000000000000000000000000000F9F9F90000000000000000000000000000000000000000000000000000F9F9F9000000F9F9F900
310
000000000000000000000000000000000000000000F9000000000000000000F90000000000000000000000000000000000000000F90000000000000000000000F9000000000000000000000000000000000000F900000000000000000000000000F90000000000000000000000000000000000F90000000000000000000000
310
000000F900000000000000000000000000000000F9000000000000000000000000000000F90000000000000000000000000000F90000000000000000000000000000000000F900000000000000000000000000F9000000000000000000000000000000000000F9000000000000000000000000F90000000000000000000000
310
0000000000000000F9000000000000000000000000F900000000000000000000000000000000000000F90000000000000000000000F90000000000000000000000000000000000000000F900000000000000000000F9000000000000000000000000000000000000000000F900000000000000000000F90000000000000000
310
00000000000000000000000000F900000000000000000000F9000000000000000000000000000000000000000000F900000000000000000000F9000000000000000000000000000000000000000000F900000000000000000000F9000000000000000000000000000000000000000000F900000000000000000000F9000000
310
000000000000000000000000000000000000F900000000000000000000F90000000000000000000000000000000000000000F90000000000000000000000F900000000000000000000000000000000000000F9000000000000000000000000F900000000000000000000000000000000000000F90000000000000000000000
310
00F9000000000000000000000000000000000000F900000000000000000000000000F90000000000000000000000000000000000F90000000000000000000000000000F9000000000000000000000000000000F900000000000000000000000000000000F90000000000000000000000000000F90000000000000000000000
310
000000000000F900000000000000000000000000F9000000000000000000000000000000000000F90000000000000000000000F90000000000000000000000000000000000000000F9000000000000000000F900000000000000000000000000000000000000000000F9F9F9000000F9F9F900000000000000000000000000
310
00000000000000000000000000F9F9F900000000000000000000000000000000000000000000000000000000000000000000000000000000
102
{BLKREFS
331
E39A
331
E3BD
331
E3C3
331
E3C4
331
E3C9
331
E3CA
331
E3CB
331
E3CC
331
E3CD
331
E3CE
331
E3CF
331
E3D0
331
E3D1
331
E3D2
331
E3D3
331
E3D4
331
E656
331
E657
331
E658
331
E659
331
E65A
331
E65B
331
E65C
331
E65D
331
E65E
331
E65F
331
E660
331
E661
331
E662
331
E663
331
E664
331
E665
102
}
 70
     4
280
     1
281
     0
  0
BLOCK_RECORD
  5
E530
330
1
100
AcDbSymbolTableRecord
100
AcDbBlockTableRecord
  2
Leiding gat
340
0
310
2800000020000000200000000100080000000000000400000000000000000000000000000000000000000000000080000080000000808000800000008000800080800000C0C0C000C0DCC000F0CAA6000020400000206000002080000020A0000020C0000020E00000400000004020000040400000406000004080000040A0
310
000040C0000040E00000600000006020000060400000606000006080000060A0000060C0000060E00000800000008020000080400000806000008080000080A0000080C0000080E00000A0000000A0200000A0400000A0600000A0800000A0A00000A0C00000A0E00000C0000000C0200000C0400000C0600000C0800000C0
310
A00000C0C00000C0E00000E0000000E0200000E0400000E0600000E0800000E0A00000E0C00000E0E00040000000400020004000400040006000400080004000A0004000C0004000E00040200000402020004020400040206000402080004020A0004020C0004020E000404000004040200040404000404060004040800040
310
40A0004040C0004040E00040600000406020004060400040606000406080004060A0004060C0004060E00040800000408020004080400040806000408080004080A0004080C0004080E00040A0000040A0200040A0400040A0600040A0800040A0A00040A0C00040A0E00040C0000040C0200040C0400040C0600040C08000
310
40C0A00040C0C00040C0E00040E0000040E0200040E0400040E0600040E0800040E0A00040E0C00040E0E00080000000800020008000400080006000800080008000A0008000C0008000E00080200000802020008020400080206000802080008020A0008020C0008020E00080400000804020008040400080406000804080
310
008040A0008040C0008040E00080600000806020008060400080606000806080008060A0008060C0008060E00080800000808020008080400080806000808080008080A0008080C0008080E00080A0000080A0200080A0400080A0600080A0800080A0A00080A0C00080A0E00080C0000080C0200080C0400080C0600080C0
310
800080C0A00080C0C00080C0E00080E0000080E0200080E0400080E0600080E0800080E0A00080E0C00080E0E000C0000000C0002000C0004000C0006000C0008000C000A000C000C000C000E000C0200000C0202000C0204000C0206000C0208000C020A000C020C000C020E000C0400000C0402000C0404000C0406000C0
310
408000C040A000C040C000C040E000C0600000C0602000C0604000C0606000C0608000C060A000C060C000C060E000C0800000C0802000C0804000C0806000C0808000C080A000C080C000C080E000C0A00000C0A02000C0A04000C0A06000C0A08000C0A0A000C0A0C000C0A0E000C0C00000C0C02000C0C04000C0C06000
310
C0C08000C0C0A000F0FBFF00A4A0A000808080000000FF0000FF000000FFFF00FF000000FF00FF00FFFF0000FFFFFF0000000000000000000000000000000000000000000000000000000000000000000000000000000000000000000000000000000000000000000000000000000000000000000000000000000000000000
310
00000000000000000000000000000000000000000000000000000000000000000000000000000000000000000000000000000000000000000000000000000000000000000000000000000000000000000000000000000000000000000000000000000000000000000000000000000000000000000000000000000000000000
310
0000000000000000000000000000000000000000000000000000F9F9F9F9F9F9F9F9F9F9F9F9F9F9F9F90000000000000000000000000000F9F900000000000000000000000000000000F9F90000000000000000000000F90000000000000000000000000000000000000000F90000000000000000F9F90000000000000000
310
0000000000000000000000000000F9F90000000000F90000000000000000000000000000000000000000000000000000F900000000F90000000000000000000000000000000000000000000000000000F900000000F90000000000000000000000000000000000000000000000000000F900000000F9000000000000000000
310
000000000000000000000000000000000000F90000F900000000000000000000000000000000000000000000000000000000F90000F900000000000000000000000000000000000000000000000000000000F9000000F9000000000000000000000000000000000000000000000000000000F9000000F90000000000000000
310
000000000000000000000000000000000000F900000000F90000000000000000000000000000000000000000000000000000F900000000F90000000000000000000000000000000000000000000000000000F90000000000F9000000000000000000000000000000000000000000000000F900000000000000F9F900000000
310
00000000000000000000000000000000F9F900000000000000000000F9000000000000000000000000000000000000F900000000000000000000000000F9F9F9F9F9F9F9F9F9F9F9F9F9F9F9F9F9F9000000000000000000000000000000000000000000000000000000000000000000000000000000000000000000000000
310
00000000000000000000000000000000000000000000000000000000000000000000000000000000000000000000000000000000000000000000000000000000000000000000000000000000000000000000000000000000000000000000000000000000000000000000000000000000000000000000000000000000000000
310
0000000000000000000000000000000000000000000000000000000000000000000000000000000000000000000000000000000000000000
102
{BLKREFS
331
E538
331
E666
102
}
 70
     4
280
     1
281
     0
  0
BLOCK_RECORD
  5
E610
330
1
100
AcDbSymbolTableRecord
100
AcDbBlockTableRecord
  2
*D11
340
0
 70
     0
280
     1
281
     0
  0
BLOCK_RECORD
  5
E667
330
1
100
AcDbSymbolTableRecord
100
AcDbBlockTableRecord
  2
*D12
340
0
 70
     0
280
     1
281
     0
  0
BLOCK_RECORD
  5
146D5
330
1
100
AcDbSymbolTableRecord
100
AcDbBlockTableRecord
  2
*D13
340
0
 70
     0
280
     1
281
     0
  0
BLOCK_RECORD
  5
146E9
330
1
100
AcDbSymbolTableRecord
100
AcDbBlockTableRecord
  2
*D14
340
0
 70
     0
280
     1
281
     0
  0
BLOCK_RECORD
  5
146FC
330
1
100
AcDbSymbolTableRecord
100
AcDbBlockTableRecord
  2
*D15
340
0
 70
     0
280
     1
281
     0
  0
BLOCK_RECORD
  5
16EEB
330
1
100
AcDbSymbolTableRecord
100
AcDbBlockTableRecord
  2
*D16
340
0
 70
     0
280
     1
281
     0
  0
BLOCK_RECORD
  5
17061
330
1
100
AcDbSymbolTableRecord
100
AcDbBlockTableRecord
  2
*D17
340
0
 70
     0
280
     1
281
     0
  0
BLOCK_RECORD
  5
176EE
330
1
100
AcDbSymbolTableRecord
100
AcDbBlockTableRecord
  2
*D18
340
0
 70
     0
280
     1
281
     0
  0
BLOCK_RECORD
  5
17715
330
1
100
AcDbSymbolTableRecord
100
AcDbBlockTableRecord
  2
*D19
340
0
 70
     0
280
     1
281
     0
  0
BLOCK_RECORD
  5
2011C
330
1
100
AcDbSymbolTableRecord
100
AcDbBlockTableRecord
  2
Profiel met arc
340
0
310
2800000020000000200000000100080000000000000400000000000000000000000000000000000000000000000080000080000000808000800000008000800080800000C0C0C000C0DCC000F0CAA6000020400000206000002080000020A0000020C0000020E00000400000004020000040400000406000004080000040A0
310
000040C0000040E00000600000006020000060400000606000006080000060A0000060C0000060E00000800000008020000080400000806000008080000080A0000080C0000080E00000A0000000A0200000A0400000A0600000A0800000A0A00000A0C00000A0E00000C0000000C0200000C0400000C0600000C0800000C0
310
A00000C0C00000C0E00000E0000000E0200000E0400000E0600000E0800000E0A00000E0C00000E0E00040000000400020004000400040006000400080004000A0004000C0004000E00040200000402020004020400040206000402080004020A0004020C0004020E000404000004040200040404000404060004040800040
310
40A0004040C0004040E00040600000406020004060400040606000406080004060A0004060C0004060E00040800000408020004080400040806000408080004080A0004080C0004080E00040A0000040A0200040A0400040A0600040A0800040A0A00040A0C00040A0E00040C0000040C0200040C0400040C0600040C08000
310
40C0A00040C0C00040C0E00040E0000040E0200040E0400040E0600040E0800040E0A00040E0C00040E0E00080000000800020008000400080006000800080008000A0008000C0008000E00080200000802020008020400080206000802080008020A0008020C0008020E00080400000804020008040400080406000804080
310
008040A0008040C0008040E00080600000806020008060400080606000806080008060A0008060C0008060E00080800000808020008080400080806000808080008080A0008080C0008080E00080A0000080A0200080A0400080A0600080A0800080A0A00080A0C00080A0E00080C0000080C0200080C0400080C0600080C0
310
800080C0A00080C0C00080C0E00080E0000080E0200080E0400080E0600080E0800080E0A00080E0C00080E0E000C0000000C0002000C0004000C0006000C0008000C000A000C000C000C000E000C0200000C0202000C0204000C0206000C0208000C020A000C020C000C020E000C0400000C0402000C0404000C0406000C0
310
408000C040A000C040C000C040E000C0600000C0602000C0604000C0606000C0608000C060A000C060C000C060E000C0800000C0802000C0804000C0806000C0808000C080A000C080C000C080E000C0A00000C0A02000C0A04000C0A06000C0A08000C0A0A000C0A0C000C0A0E000C0C00000C0C02000C0C04000C0C06000
310
C0C08000C0C0A000F0FBFF00A4A0A000808080000000FF0000FF000000FFFF00FF000000FF00FF00FFFF0000FFFFFF0000000000000000000000000000000000000000000000000000000000000000000000000000000000000000FFFFFFFFFFFFFFFFFFFF000000000000000000000000000000000000000000FFFFFFFFFF
310
FFFFFFFFFFFFFF0000000000000000000000000000000000000000FFFF0000000000000000FFFF0000000000000000000000000000000000000000FFFF0000000000000000FFFF0000000000000000000000000000000000000000FFFF00000000000000FFFF000000000000000000000000000000000000000000FFFF0000
310
00000000000000000000000000000000000000000000000000000000A4FFFF00000000000000000000000000000000000000000000000000000000000000FFFFFF00000000000000000000000000000000000000000000000000000000000000FF000000000000000000000000000000000000000000000000000000000000
310
00FF00000000000000000000000000000000000000000000000000000000000000FF00000000000000000000000000000000000000000000000000000000000000FF00000000000000000000000000000000000000000000000000000000000000FF0000000000000000000000000000000000000000000000000000000000
310
0000FF00000000000000000000000000000000000000000000000000000000000000FF00000000000000000000000000000000000000000000000000000000000000FF00000000000000000000000000000000000000000000000000000000000000FF00000000000000000000000000000000000000000000000000000000
310
000000FF00000000000000000000000000000000000000000000000000000000000000FF00000000000000000000000000000000000000000000000000000000000000FF00000000000000000000000000000000000000000000000000000000000000FF000000000000000000000000000000000000000000000000000000
310
00000000FF0000000000000000000000000000000000000000000000000000000000FFFFFF000000000000000000000000000000000000000000000000000000A4FFFF0000000000000000000000000000000000000000000000000000000000FFFF0000000000000000000000000000000000000000000000000000000000
310
00FFFF00000000000000FFFF000000000000000000000000000000000000000000FFFF0000000000000000FFFF0000000000000000000000000000000000000000FFFF0000000000000000FFFF0000000000000000000000000000000000000000FFFFFFFFFFFFFFFFFFFFFFFF000000000000000000000000000000000000
310
000000FFFFFFFFFFFFFFFFFFFF00000000000000000000000000000000000000000000000000000000000000000000000000000000000000
102
{BLKREFS
331
20121
102
}
 70
     4
280
     1
281
     0
  0
BLOCK_RECORD
  5
23DBE
330
1
100
AcDbSymbolTableRecord
100
AcDbBlockTableRecord
  2
Copyright
340
0
310
2800000020000000200000000100080000000000000400000000000000000000000000000000000000000000000080000080000000808000800000008000800080800000C0C0C000C0DCC000F0CAA6000020400000206000002080000020A0000020C0000020E00000400000004020000040400000406000004080000040A0
310
000040C0000040E00000600000006020000060400000606000006080000060A0000060C0000060E00000800000008020000080400000806000008080000080A0000080C0000080E00000A0000000A0200000A0400000A0600000A0800000A0A00000A0C00000A0E00000C0000000C0200000C0400000C0600000C0800000C0
310
A00000C0C00000C0E00000E0000000E0200000E0400000E0600000E0800000E0A00000E0C00000E0E00040000000400020004000400040006000400080004000A0004000C0004000E00040200000402020004020400040206000402080004020A0004020C0004020E000404000004040200040404000404060004040800040
310
40A0004040C0004040E00040600000406020004060400040606000406080004060A0004060C0004060E00040800000408020004080400040806000408080004080A0004080C0004080E00040A0000040A0200040A0400040A0600040A0800040A0A00040A0C00040A0E00040C0000040C0200040C0400040C0600040C08000
310
40C0A00040C0C00040C0E00040E0000040E0200040E0400040E0600040E0800040E0A00040E0C00040E0E00080000000800020008000400080006000800080008000A0008000C0008000E00080200000802020008020400080206000802080008020A0008020C0008020E00080400000804020008040400080406000804080
310
008040A0008040C0008040E00080600000806020008060400080606000806080008060A0008060C0008060E00080800000808020008080400080806000808080008080A0008080C0008080E00080A0000080A0200080A0400080A0600080A0800080A0A00080A0C00080A0E00080C0000080C0200080C0400080C0600080C0
310
800080C0A00080C0C00080C0E00080E0000080E0200080E0400080E0600080E0800080E0A00080E0C00080E0E000C0000000C0002000C0004000C0006000C0008000C000A000C000C000C000E000C0200000C0202000C0204000C0206000C0208000C020A000C020C000C020E000C0400000C0402000C0404000C0406000C0
310
408000C040A000C040C000C040E000C0600000C0602000C0604000C0606000C0608000C060A000C060C000C060E000C0800000C0802000C0804000C0806000C0808000C080A000C080C000C080E000C0A00000C0A02000C0A04000C0A06000C0A08000C0A0A000C0A0C000C0A0E000C0C00000C0C02000C0C04000C0C06000
310
C0C08000C0C0A000F0FBFF00A4A0A000808080000000FF0000FF000000FFFF00FF000000FF00FF00FFFF0000FFFFFF0000000000000000000000000000000000000000000000000000000000000000000000000000000000000000000000000000000000000000000000000000000000000000000000000000000000000000
310
00000000000000000000000000000000000000000000000000000000000000000000000000000000000000000000000000000000000000000000000000000000000000000000000000000000000000000000000000000000000000000000000000000000000000000000000000000000000000000000000000000000000000
310
00000000000000000000000000000000000000000000000000000000000000000000000000000000000000000000000000000000000000000000000000000000000000000000000000000000000000000000000000000000000000000000000000000000000000000000000000000000000000000000000000000000000000
310
0000000000000000000000000000000000000000000000000000000000000000000000000000000000000000000000000000000000000000000000000000000000000000000000000000000000000000000000000000000000000000000000000000000000000000000000000000000000000000FDFDFDFDFDFDFDFDFDFDFD
310
FDFDFDFDFDFDFDFDFDFDFDFD000000000000000000FDFDFDFDFDFDFDFDFDFDFDFDFDFDFDFDFDFDFDFDFDFDFDFDFDFDFDFD00000000FDFDFDFDFDFDFDFDFDFDFDFDFDFDFDFDFDFDFDFDFDFDFDFDFDFDFDFDFD000000FDFDFDFDFDFDFDFDFDFDFDFDFDFDFDFDFDFDFDFDFDFDFDFDFDFDFDFDFD00000000000000000000000000
310
00000000000000000000000000000000000000000000000000000000000000000000000000000000000000000000000000000000000000000000000000000000000000000000000000000000000000000000000000000000000000000000000000000000000000000000000000000000000000000000000000000000000000
310
00000000000000000000000000000000000000000000000000000000000000000000000000000000000000000000000000000000000000000000000000000000000000000000000000000000000000000000000000000000000000000000000000000000000000000000000000000000000000000000000000000000000000
310
00000000000000000000000000000000000000000000000000000000000000000000000000000000000000000000000000000000000000000000000000000000000000000000000000000000000000000000000000000000000000000000000000000000000000000000000000000000000000000000000000000000000000
310
0000000000000000000000000000000000000000000000000000000000000000000000000000000000000000000000000000000000000000
102
{BLKREFS
331
23DCC
102
}
 70
     4
280
     1
281
     0
  0
ENDTAB
  0
ENDSEC
  0
SECTION
  2
BLOCKS
  0
BLOCK
  5
20
330
1F
100
AcDbEntity
  8
0
100
AcDbBlockBegin
  2
*Model_Space
 70
     0
 10
0.0
 20
0.0
 30
0.0
  3
*Model_Space
  1

  0
ENDBLK
  5
21
330
1F
100
AcDbEntity
  8
0
100
AcDbBlockEnd
  0
BLOCK
  5
23FDB
330
23FD9
100
AcDbEntity
 67
     1
  8
0
100
AcDbBlockBegin
  2
*Paper_Space
 70
     0
 10
0.0
 20
0.0
 30
0.0
  3
*Paper_Space
  1

  0
ENDBLK
  5
23FDC
330
23FD9
100
AcDbEntity
 67
     1
  8
0
100
AcDbBlockEnd
  0
BLOCK
  5
43E9
330
43E8
100
AcDbEntity
  8
0
100
AcDbBlockBegin
  2
Profiel
 70
     0
 10
0.0
 20
0.0
 30
0.0
  3
Profiel
  1

  0
LINE
  5
17ACE
330
43E8
100
AcDbEntity
  8
Profiel
100
AcDbLine
 10
-11.0
 20
153.2508550991879
 30
0.0
 11
-10.99999999999818
 21
56.7491449008121
 31
0.0
  0
LINE
  5
17ACF
330
43E8
100
AcDbEntity
  8
Profiel
100
AcDbLine
 10
-9.25
 20
153.2508550991879
 30
0.0
 11
-9.249999999998181
 21
56.7491449008121
 31
0.0
  0
LINE
  5
17AD0
330
43E8
100
AcDbEntity
  8
Profiel
100
AcDbLine
 10
-37.49999999999818
 20
36.72603258940308
 30
0.0
 11
-37.49999999999818
 21
5.5
 31
0.0
  0
LINE
  5
17AD1
330
43E8
100
AcDbEntity
  8
Profiel
100
AcDbLine
 10
-35.74999999999818
 20
36.72603258940308
 30
0.0
 11
-35.74999999999818
 21
5.5
 31
0.0
  0
ARC
  5
17AD2
330
43E8
100
AcDbEntity
  8
Profiel
100
AcDbCircle
 10
-30.99999999999818
 20
36.72603258940308
 30
0.0
 40
6.5
100
AcDbArc
 50
119.5114985570509
 51
180.0
  0
ARC
  5
17AD3
330
43E8
100
AcDbEntity
  8
Profiel
100
AcDbCircle
 10
-30.99999999999818
 20
36.72603258940308
 30
0.0
 40
4.75
100
AcDbArc
 50
119.5114985570509
 51
180.0
  0
LINE
  5
17AD4
330
43E8
100
AcDbEntity
  8
Profiel
100
AcDbLine
 10
-32.0
 20
0.0
 30
0.0
 11
32.00000000000182
 21
0.0
 31
0.0
  0
LINE
  5
17AD5
330
43E8
100
AcDbEntity
  8
Profiel
100
AcDbLine
 10
-32.0
 20
1.75
 30
0.0
 11
32.00000000000182
 21
1.75
 31
0.0
  0
LINE
  5
17AD6
330
43E8
100
AcDbEntity
  8
Profiel
100
AcDbLine
 10
37.5
 20
5.5
 30
0.0
 11
37.5
 21
19.5
 31
0.0
  0
LINE
  5
17AD7
330
43E8
100
AcDbEntity
  8
Profiel
100
AcDbLine
 10
35.75
 20
5.5
 30
0.0
 11
35.75
 21
19.5
 31
0.0
  0
LINE
  5
17AD8
330
43E8
100
AcDbEntity
  8
Profiel
100
AcDbLine
 10
-12.52220534044318
 20
54.13837433559729
 30
0.0
 11
-34.20188842903554
 21
42.38270214736712
 31
0.0
  0
LINE
  5
17AD9
330
43E8
100
AcDbEntity
  8
Profiel
100
AcDbLine
 10
-11.66015845570291
 20
52.61542483922221
 30
0.0
 11
-33.33984154429527
 21
40.85975265099205
 31
0.0
  0
ARC
  5
17ADA
330
43E8
100
AcDbEntity
  8
Profiel
100
AcDbCircle
 10
-13.99999999999818
 20
56.7491449008121
 30
0.0
 40
3.0
100
AcDbArc
 50
299.511498557051
 51
0.0
  0
ARC
  5
17ADB
330
43E8
100
AcDbEntity
  8
Profiel
100
AcDbCircle
 10
-13.99999999999818
 20
56.7491449008121
 30
0.0
 40
4.75
100
AcDbArc
 50
299.511498557051
 51
0.0
  0
LINE
  5
17ADC
330
43E8
100
AcDbEntity
  8
Profiel
100
AcDbLine
 10
27.50000000000182
 20
25.0
 30
0.0
 11
32.00000000000182
 21
25.0
 31
0.0
  0
LINE
  5
17ADD
330
43E8
100
AcDbEntity
  8
Profiel
100
AcDbLine
 10
27.50000000000182
 20
23.25
 30
0.0
 11
32.00000000000182
 21
23.25
 31
0.0
  0
LINE
  5
17ADE
330
43E8
100
AcDbEntity
  8
Profiel
100
AcDbLine
 10
-12.52220534044318
 20
155.8616256644027
 30
0.0
 11
-34.20188842903554
 21
168.1331443937942
 31
0.0
  0
LINE
  5
17ADF
330
43E8
100
AcDbEntity
  8
Profiel
100
AcDbLine
 10
-11.66015845570291
 20
157.3845751607778
 30
0.0
 11
-33.33984154429527
 21
169.6560938901693
 31
0.0
  0
ARC
  5
17AE0
330
43E8
100
AcDbEntity
  8
Profiel
100
AcDbCircle
 10
-31.78705093463577
 20
173.3107597304006
 30
0.0
 40
5.713067538391421
100
AcDbArc
 50
180.3689890240269
 51
244.9956752168605
  0
ARC
  5
17AE1
330
43E8
100
AcDbEntity
  8
Profiel
100
AcDbCircle
 10
-31.77325824367472
 20
173.311459454937
 30
0.0
 40
3.976918486702422
100
AcDbArc
 50
180.5401588526846
 51
246.8014351950962
  0
LINE
  5
17AE2
330
43E8
100
AcDbEntity
  8
Profiel
100
AcDbLine
 10
32.00000000000182
 20
210.0
 30
0.0
 11
-32.0
 21
210.0
 31
0.0
  0
LINE
  5
17AE3
330
43E8
100
AcDbEntity
  8
Profiel
100
AcDbLine
 10
32.00000000000182
 20
208.25
 30
0.0
 11
-32.0
 21
208.25
 31
0.0
  0
LINE
  5
17AE4
330
43E8
100
AcDbEntity
  8
Profiel
100
AcDbLine
 10
-37.49999999999818
 20
204.5
 30
0.0
 11
-37.49999999999818
 21
173.273967410596
 31
0.0
  0
LINE
  5
17AE5
330
43E8
100
AcDbEntity
  8
Profiel
100
AcDbLine
 10
-35.74999999999818
 20
204.5
 30
0.0
 11
-35.74999999999818
 21
173.273967410596
 31
0.0
  0
ARC
  5
17AE6
330
43E8
100
AcDbEntity
  8
Profiel
100
AcDbCircle
 10
-14.0
 20
153.2508550991879
 30
0.0
 40
3.0
100
AcDbArc
 50
0.0
 51
60.48850144294903
  0
ARC
  5
17AE7
330
43E8
100
AcDbEntity
  8
Profiel
100
AcDbCircle
 10
-14.0
 20
153.2508550991879
 30
0.0
 40
4.75
100
AcDbArc
 50
0.0
 51
60.48850144294903
  0
LINE
  5
17AE8
330
43E8
100
AcDbEntity
  8
Profiel
100
AcDbLine
 10
27.5
 20
186.7500000000009
 30
0.0
 11
27.50000000000182
 21
185.0
 31
0.0
  0
LINE
  5
17AE9
330
43E8
100
AcDbEntity
  8
Profiel
100
AcDbLine
 10
32.0
 20
185.0
 30
0.0
 11
27.50000000000182
 21
185.0
 31
0.0
  0
LINE
  5
17AEA
330
43E8
100
AcDbEntity
  8
Profiel
100
AcDbLine
 10
32.0
 20
186.75
 30
0.0
 11
27.5
 21
186.7500000000009
 31
0.0
  0
LINE
  5
17AEB
330
43E8
100
AcDbEntity
  8
Profiel
100
AcDbLine
 10
37.5
 20
190.5
 30
0.0
 11
37.5
 21
204.5
 31
0.0
  0
LINE
  5
17AEC
330
43E8
100
AcDbEntity
  8
Profiel
100
AcDbLine
 10
35.75
 20
190.5
 30
0.0
 11
35.75
 21
204.5
 31
0.0
  0
ARC
  5
17AED
330
43E8
100
AcDbEntity
  8
Profiel
100
AcDbCircle
 10
32.0
 20
190.5
 30
0.0
 40
5.5
100
AcDbArc
 50
270.0
 51
0.0
  0
ARC
  5
17AEE
330
43E8
100
AcDbEntity
  8
Profiel
100
AcDbCircle
 10
32.0
 20
190.5
 30
0.0
 40
3.75
100
AcDbArc
 50
270.0
 51
0.0
  0
ARC
  5
17AEF
330
43E8
100
AcDbEntity
  8
Profiel
100
AcDbCircle
 10
32.00000000000182
 20
204.5
 30
0.0
 40
5.5
100
AcDbArc
 50
0.0
 51
90.0
  0
ARC
  5
17AF0
330
43E8
100
AcDbEntity
  8
Profiel
100
AcDbCircle
 10
32.00000000000182
 20
204.5
 30
0.0
 40
3.75
100
AcDbArc
 50
0.0
 51
90.0
  0
ARC
  5
17AF1
330
43E8
100
AcDbEntity
  8
Profiel
100
AcDbCircle
 10
-32.0
 20
204.5
 30
0.0
 40
5.5
100
AcDbArc
 50
90.0
 51
180.0
  0
ARC
  5
17AF2
330
43E8
100
AcDbEntity
  8
Profiel
100
AcDbCircle
 10
-32.0
 20
204.5
 30
0.0
 40
3.75
100
AcDbArc
 50
90.0
 51
180.0
  0
ARC
  5
17AF3
330
43E8
100
AcDbEntity
  8
Profiel
100
AcDbCircle
 10
-32.0
 20
5.5
 30
0.0
 40
5.5
100
AcDbArc
 50
180.0
 51
270.0
  0
ARC
  5
17AF4
330
43E8
100
AcDbEntity
  8
Profiel
100
AcDbCircle
 10
-32.0
 20
5.5
 30
0.0
 40
3.75
100
AcDbArc
 50
180.0
 51
270.0
  0
ARC
  5
17AF5
330
43E8
100
AcDbEntity
  8
Profiel
100
AcDbCircle
 10
32.00000000000182
 20
19.5
 30
0.0
 40
5.5
100
AcDbArc
 50
0.0
 51
90.0
  0
ARC
  5
17AF6
330
43E8
100
AcDbEntity
  8
Profiel
100
AcDbCircle
 10
32.00000000000182
 20
19.5
 30
0.0
 40
3.75
100
AcDbArc
 50
0.0
 51
90.0
  0
ARC
  5
17AF7
330
43E8
100
AcDbEntity
  8
Profiel
100
AcDbCircle
 10
32.00000000000182
 20
5.5
 30
0.0
 40
5.5
100
AcDbArc
 50
270.0
 51
0.0
  0
ARC
  5
17AF8
330
43E8
100
AcDbEntity
  8
Profiel
100
AcDbCircle
 10
32.00000000000182
 20
5.5
 30
0.0
 40
3.75
100
AcDbArc
 50
270.0
 51
0.0
  0
LINE
  5
17AF9
330
43E8
100
AcDbEntity
  8
Profiel
100
AcDbLine
 10
27.50000000000182
 20
25.0
 30
0.0
 11
27.50000000000182
 21
23.25
 31
0.0
  0
ENDBLK
  5
43EA
330
43E8
100
AcDbEntity
  8
0
100
AcDbBlockEnd
  0
BLOCK
  5
7C47
330
7C45
100
AcDbEntity
  8
0
100
AcDbBlockBegin
  2
_Oblique
 70
     0
 10
0.0
 20
0.0
 30
0.0
  3
_Oblique
  1

  0
LINE
  5
7C46
330
7C45
100
AcDbEntity
  8
0
  6
ByBlock
 62
     0
370
    -2
100
AcDbLine
 10
-0.5
 20
-0.5
 30
0.0
 11
0.5
 21
0.5
 31
0.0
  0
ENDBLK
  5
7C48
330
7C45
100
AcDbEntity
  8
0
100
AcDbBlockEnd
  0
BLOCK
  5
DA46
330
DA45
100
AcDbEntity
  8
0
100
AcDbBlockBegin
  2
*D2
 70
     1
 10
0.0
 20
0.0
 30
0.0
  3
*D2
  1

  0
LINE
  5
24A5D
330
DA45
100
AcDbEntity
  8
Maatvoering
 62
     0
440
 16777216
370
    -2
100
AcDbLine
 10
16211.00109392641
 20
6971.846649453858
 30
0.0
 11
16238.79047350207
 21
6971.846649453858
 31
0.0
  0
LINE
  5
24A5E
330
DA45
100
AcDbEntity
  8
Maatvoering
 62
     0
440
 16777216
370
    -2
100
AcDbLine
 10
16211.00109392641
 20
6946.846649453859
 30
0.0
 11
16238.79047350207
 21
6946.846649453859
 31
0.0
  0
LINE
  5
24A5F
330
DA45
100
AcDbEntity
  8
Maatvoering
 62
     0
440
 16777216
370
    -2
100
AcDbLine
 10
16223.79047350207
 20
6971.846649453858
 30
0.0
 11
16223.79047350207
 21
6981.846649453858
 31
0.0
  0
LINE
  5
24A60
330
DA45
100
AcDbEntity
  8
Maatvoering
 62
     0
440
 16777216
370
    -2
100
AcDbLine
 10
16223.79047350207
 20
6946.846649453859
 30
0.0
 11
16223.79047350207
 21
6936.846649453859
 31
0.0
  0
INSERT
  5
24A61
330
DA45
100
AcDbEntity
  8
Maatvoering
 62
     0
440
 16777216
370
    -2
100
AcDbBlockReference
  2
_Oblique
 10
16223.79047350207
 20
6971.846649453858
 30
0.0
 41
10.0
 42
10.0
 43
10.0
 50
270.0
  0
INSERT
  5
24A62
330
DA45
100
AcDbEntity
  8
Maatvoering
 62
     0
440
 16777216
370
    -2
100
AcDbBlockReference
  2
_Oblique
 10
16223.79047350207
 20
6946.846649453859
 30
0.0
 41
10.0
 42
10.0
 43
10.0
 50
90.0
  0
MTEXT
  5
24A63
330
DA45
100
AcDbEntity
  8
Maatvoering
 62
     0
440
 16777216
100
AcDbMText
 10
16223.79047350207
 20
6959.346649453862
 30
0.0
 40
15.0
 41
0.0
 46
0.0
 71
     5
 72
     1
  1
\A1;25
 73
     1
 44
1.0
  0
POINT
  5
24A64
330
DA45
100
AcDbEntity
  8
Defpoints
 62
     0
440
 16777216
100
AcDbPoint
 10
16186.00109392641
 20
6971.846649453858
 30
0.0
  0
POINT
  5
24A65
330
DA45
100
AcDbEntity
  8
Defpoints
 62
     0
440
 16777216
100
AcDbPoint
 10
16186.00109392641
 20
6946.846649453859
 30
0.0
  0
POINT
  5
24A66
330
DA45
100
AcDbEntity
  8
Defpoints
 62
     0
440
 16777216
100
AcDbPoint
 10
16223.79047350207
 20
6946.846649453859
 30
0.0
  0
ENDBLK
  5
DA47
330
DA45
100
AcDbEntity
  8
0
100
AcDbBlockEnd
  0
BLOCK
  5
DBEC
330
DBEB
100
AcDbEntity
  8
0
 62
     7
100
AcDbBlockBegin
  2
*D3
 70
     1
 10
0.0
 20
0.0
 30
0.0
  3
*D3
  1

  0
LINE
  5
24A67
330
DBEB
100
AcDbEntity
  8
Maatvoering
 62
     0
440
 16777216
370
    -2
100
AcDbLine
 10
16360.50691056741
 20
6736.846649453856
 30
0.0
 11
16360.50691056741
 21
6686.792037404659
 31
0.0
  0
LINE
  5
24A68
330
DBEB
100
AcDbEntity
  8
Maatvoering
 62
     0
440
 16777216
370
    -2
100
AcDbLine
 10
18375.12869383948
 20
6736.846649453861
 30
0.0
 11
18375.12869383948
 21
6686.792037404659
 31
0.0
  0
LINE
  5
24A69
330
DBEB
100
AcDbEntity
  8
Maatvoering
 62
     0
440
 16777216
370
    -2
100
AcDbLine
 10
16350.50691056741
 20
6701.79203740466
 30
0.0
 11
17076.77042628327
 21
6701.79203740466
 31
0.0
  0
LINE
  5
24A6A
330
DBEB
100
AcDbEntity
  8
Maatvoering
 62
     0
440
 16777216
370
    -2
100
AcDbLine
 10
18385.12869383948
 20
6701.79203740466
 30
0.0
 11
17654.28406884807
 21
6701.79203740466
 31
0.0
  0
INSERT
  5
24A6B
330
DBEB
100
AcDbEntity
  8
Maatvoering
 62
     0
440
 16777216
370
    -2
100
AcDbBlockReference
  2
_Oblique
 10
16360.50691056741
 20
6701.79203740466
 30
0.0
 41
10.0
 42
10.0
 43
10.0
 50
180.0
  0
INSERT
  5
24A6C
330
DBEB
100
AcDbEntity
  8
Maatvoering
 62
     0
440
 16777216
370
    -2
100
AcDbBlockReference
  2
_Oblique
 10
18375.12869383948
 20
6701.79203740466
 30
0.0
 41
10.0
 42
10.0
 43
10.0
  0
MTEXT
  5
24A6D
330
DBEB
100
AcDbEntity
  8
Maatvoering
 62
     0
440
 16777216
100
AcDbMText
 10
17365.52724756567
 20
6701.79203740466
 30
0.0
 40
15.0
 41
0.0
 46
0.0
 71
     5
 72
     1
  1
\A1;Standaard: 3000 / 3300 / 3600 / 3900 / 4200 / 4600 / 5000
 73
     1
 44
1.0
  0
POINT
  5
24A6E
330
DBEB
100
AcDbEntity
  8
Defpoints
 62
     0
440
 16777216
100
AcDbPoint
 10
16360.50691056741
 20
6761.846649453857
 30
0.0
  0
POINT
  5
24A6F
330
DBEB
100
AcDbEntity
  8
Defpoints
 62
     0
440
 16777216
100
AcDbPoint
 10
18375.12869383948
 20
6761.846649453861
 30
0.0
  0
POINT
  5
24A70
330
DBEB
100
AcDbEntity
  8
Defpoints
 62
     0
440
 16777216
100
AcDbPoint
 10
18375.12869383948
 20
6701.79203740466
 30
0.0
  0
ENDBLK
  5
DBED
330
DBEB
100
AcDbEntity
  8
0
 62
     7
100
AcDbBlockEnd
  0
BLOCK
  5
DF9A
330
DF99
100
AcDbEntity
  8
0
100
AcDbBlockBegin
  2
*D4
 70
     1
 10
0.0
 20
0.0
 30
0.0
  3
*D4
  1

  0
LINE
  5
24A71
330
DF99
100
AcDbEntity
  8
Maatvoering
 62
     0
440
 16777216
370
    -2
100
AcDbLine
 10
16116.54795521999
 20
6741.630215054515
 30
0.0
 11
16116.54795521999
 21
6686.792037404657
 31
0.0
  0
LINE
  5
24A72
330
DF99
100
AcDbEntity
  8
Maatvoering
 62
     0
440
 16777216
370
    -2
100
AcDbLine
 10
16191.50109392641
 20
6742.346649453859
 30
0.0
 11
16191.50109392641
 21
6686.792037404657
 31
0.0
  0
LINE
  5
24A73
330
DF99
100
AcDbEntity
  8
Maatvoering
 62
     0
440
 16777216
370
    -2
100
AcDbLine
 10
16106.54795521999
 20
6701.792037404658
 30
0.0
 11
16133.28612075329
 21
6701.792037404658
 31
0.0
  0
LINE
  5
24A74
330
DF99
100
AcDbEntity
  8
Maatvoering
 62
     0
440
 16777216
370
    -2
100
AcDbLine
 10
16201.50109392641
 20
6701.792037404658
 30
0.0
 11
16174.76292839312
 21
6701.792037404658
 31
0.0
  0
INSERT
  5
24A75
330
DF99
100
AcDbEntity
  8
Maatvoering
 62
     0
440
 16777216
370
    -2
100
AcDbBlockReference
  2
_Oblique
 10
16116.54795521999
 20
6701.792037404658
 30
0.0
 41
10.0
 42
10.0
 43
10.0
 50
180.0
  0
INSERT
  5
24A76
330
DF99
100
AcDbEntity
  8
Maatvoering
 62
     0
440
 16777216
370
    -2
100
AcDbBlockReference
  2
_Oblique
 10
16191.50109392641
 20
6701.792037404658
 30
0.0
 41
10.0
 42
10.0
 43
10.0
  0
MTEXT
  5
24A77
330
DF99
100
AcDbEntity
  8
Maatvoering
 62
     0
440
 16777216
100
AcDbMText
 10
16154.0245245732
 20
6701.792037404658
 30
0.0
 40
15.0
 41
0.0
 46
0.0
 71
     5
 72
     1
  1
\A1;75
 73
     1
 44
1.0
  0
POINT
  5
24A78
330
DF99
100
AcDbEntity
  8
Defpoints
 62
     0
440
 16777216
100
AcDbPoint
 10
16116.54795521999
 20
6766.630215054515
 30
0.0
  0
POINT
  5
24A79
330
DF99
100
AcDbEntity
  8
Defpoints
 62
     0
440
 16777216
100
AcDbPoint
 10
16191.50109392641
 20
6767.346649453859
 30
0.0
  0
POINT
  5
24A7A
330
DF99
100
AcDbEntity
  8
Defpoints
 62
     0
440
 16777216
100
AcDbPoint
 10
16191.50109392641
 20
6701.792037404658
 30
0.0
  0
ENDBLK
  5
DF9B
330
DF99
100
AcDbEntity
  8
0
100
AcDbBlockEnd
  0
BLOCK
  5
DFAD
330
DFAC
100
AcDbEntity
  8
0
100
AcDbBlockBegin
  2
*D5
 70
     1
 10
0.0
 20
0.0
 30
0.0
  3
*D5
  1

  0
LINE
  5
24A7B
330
DFAC
100
AcDbEntity
  8
Maatvoering
 62
     0
440
 16777216
370
    -2
100
AcDbLine
 10
16211.00109392641
 20
6971.846649453858
 30
0.0
 11
16276.39964712756
 21
6971.846649453858
 31
0.0
  0
LINE
  5
24A7C
330
DFAC
100
AcDbEntity
  8
Maatvoering
 62
     0
440
 16777216
370
    -2
100
AcDbLine
 10
16211.00109392641
 20
6761.846649453859
 30
0.0
 11
16276.39964712756
 21
6761.846649453859
 31
0.0
  0
LINE
  5
24A7D
330
DFAC
100
AcDbEntity
  8
Maatvoering
 62
     0
440
 16777216
370
    -2
100
AcDbLine
 10
16261.39964712755
 20
6981.846649453858
 30
0.0
 11
16261.39964712755
 21
6894.505244269685
 31
0.0
  0
LINE
  5
24A7E
330
DFAC
100
AcDbEntity
  8
Maatvoering
 62
     0
440
 16777216
370
    -2
100
AcDbLine
 10
16261.39964712755
 20
6751.846649453859
 30
0.0
 11
16261.39964712755
 21
6839.188054638033
 31
0.0
  0
INSERT
  5
24A7F
330
DFAC
100
AcDbEntity
  8
Maatvoering
 62
     0
440
 16777216
370
    -2
100
AcDbBlockReference
  2
_Oblique
 10
16261.39964712755
 20
6971.846649453858
 30
0.0
 41
10.0
 42
10.0
 43
10.0
 50
90.0
  0
INSERT
  5
24A80
330
DFAC
100
AcDbEntity
  8
Maatvoering
 62
     0
440
 16777216
370
    -2
100
AcDbBlockReference
  2
_Oblique
 10
16261.39964712755
 20
6761.846649453859
 30
0.0
 41
10.0
 42
10.0
 43
10.0
 50
270.0
  0
MTEXT
  5
24A81
330
DFAC
100
AcDbEntity
  8
Maatvoering
 62
     0
440
 16777216
100
AcDbMText
 10
16261.39964712755
 20
6866.846649453862
 30
0.0
 40
15.0
 41
0.0
 46
0.0
 71
     5
 72
     1
  1
\A1;210
 73
     1
 44
1.0
  0
POINT
  5
24A82
330
DFAC
100
AcDbEntity
  8
Defpoints
 62
     0
440
 16777216
100
AcDbPoint
 10
16186.00109392641
 20
6971.846649453858
 30
0.0
  0
POINT
  5
24A83
330
DFAC
100
AcDbEntity
  8
Defpoints
 62
     0
440
 16777216
100
AcDbPoint
 10
16186.00109392641
 20
6761.846649453859
 30
0.0
  0
POINT
  5
24A84
330
DFAC
100
AcDbEntity
  8
Defpoints
 62
     0
440
 16777216
100
AcDbPoint
 10
16261.39964712755
 20
6761.846649453859
 30
0.0
  0
ENDBLK
  5
DFAE
330
DFAC
100
AcDbEntity
  8
0
100
AcDbBlockEnd
  0
BLOCK
  5
E0B1
330
E0B0
100
AcDbEntity
  8
0
100
AcDbBlockBegin
  2
*D6
 70
     1
 10
0.0
 20
0.0
 30
0.0
  3
*D6
  1

  0
LINE
  5
24A85
330
E0B0
100
AcDbEntity
  8
Maatvoering
 62
     0
440
 16777216
370
    -2
100
AcDbLine
 10
16092.4054835492
 20
6932.072462379945
 30
0.0
 11
16071.72908186271
 21
6932.072462379945
 31
0.0
  0
LINE
  5
24A86
330
E0B0
100
AcDbEntity
  8
Maatvoering
 62
     0
440
 16777216
370
    -2
100
AcDbLine
 10
16092.38583459185
 20
6801.846649453858
 30
0.0
 11
16071.72908186271
 21
6801.846649453858
 31
0.0
  0
LINE
  5
24A87
330
E0B0
100
AcDbEntity
  8
Maatvoering
 62
     0
440
 16777216
370
    -2
100
AcDbLine
 10
16086.72908186271
 20
6942.072462379944
 30
0.0
 11
16086.72908186271
 21
6896.092326616153
 31
0.0
  0
LINE
  5
24A88
330
E0B0
100
AcDbEntity
  8
Maatvoering
 62
     0
440
 16777216
370
    -2
100
AcDbLine
 10
16086.72908186271
 20
6791.846649453859
 30
0.0
 11
16086.72908186271
 21
6840.7649050609
 31
0.0
  0
MTEXT
  5
24A89
330
E0B0
100
AcDbEntity
  8
Maatvoering
 62
     0
440
 16777216
100
AcDbMText
 10
16071.21902791894
 20
6868.428615838529
 30
0.0
 40
15.0
 41
0.0
 46
0.0
 71
     5
 72
     1
  1
\A1;130
 73
     1
 44
1.0
  0
INSERT
  5
24A8A
330
E0B0
100
AcDbEntity
  8
Maatvoering
 62
     0
440
 16777216
370
    -2
100
AcDbBlockReference
  2
_Oblique
 10
16086.72908186271
 20
6932.072462379945
 30
0.0
 41
10.0
 42
10.0
 43
10.0
 50
90.0
  0
INSERT
  5
24A8B
330
E0B0
100
AcDbEntity
  8
Maatvoering
 62
     0
440
 16777216
370
    -2
100
AcDbBlockReference
  2
_Oblique
 10
16086.72908186271
 20
6801.846649453858
 30
0.0
 41
10.0
 42
10.0
 43
10.0
 50
270.0
  0
POINT
  5
24A8C
330
E0B0
100
AcDbEntity
  8
Defpoints
 62
     0
440
 16777216
100
AcDbPoint
 10
16117.4054835492
 20
6932.072462379945
 30
0.0
  0
POINT
  5
24A8D
330
E0B0
100
AcDbEntity
  8
Defpoints
 62
     0
440
 16777216
100
AcDbPoint
 10
16117.38583459185
 20
6801.846649453858
 30
0.0
  0
POINT
  5
24A8E
330
E0B0
100
AcDbEntity
  8
Defpoints
 62
     0
440
 16777216
100
AcDbPoint
 10
16086.72908186271
 20
6801.846649453858
 30
0.0
  0
ENDBLK
  5
E0B2
330
E0B0
100
AcDbEntity
  8
0
100
AcDbBlockEnd
  0
BLOCK
  5
E0C4
330
E0C3
100
AcDbEntity
  8
0
100
AcDbBlockBegin
  2
*D7
 70
     1
 10
0.0
 20
0.0
 30
0.0
  3
*D7
  1

  0
LINE
  5
24A8F
330
E0C3
100
AcDbEntity
  8
Maatvoering
 62
     0
440
 16777216
370
    -2
100
AcDbLine
 10
16092.38583459185
 20
6801.846649453858
 30
0.0
 11
16071.72908186271
 21
6801.846649453858
 31
0.0
  0
LINE
  5
24A90
330
E0C3
100
AcDbEntity
  8
Maatvoering
 62
     0
440
 16777216
370
    -2
100
AcDbLine
 10
16097.00109392641
 20
6761.846649453859
 30
0.0
 11
16071.72908186271
 21
6761.846649453859
 31
0.0
  0
LINE
  5
24A91
330
E0C3
100
AcDbEntity
  8
Maatvoering
 62
     0
440
 16777216
370
    -2
100
AcDbLine
 10
16086.72908186271
 20
6811.846649453859
 30
0.0
 11
16086.72908186271
 21
6751.846649453859
 31
0.0
  0
MTEXT
  5
24A92
330
E0C3
100
AcDbEntity
  8
Maatvoering
 62
     0
440
 16777216
100
AcDbMText
 10
16064.01762210827
 20
6782.088726183278
 30
0.0
 40
15.0
 41
0.0
 46
0.0
 71
     5
 72
     1
  1
\A1;40
 73
     1
 44
1.0
  0
INSERT
  5
24A93
330
E0C3
100
AcDbEntity
  8
Maatvoering
 62
     0
440
 16777216
370
    -2
100
AcDbBlockReference
  2
_Oblique
 10
16086.72908186271
 20
6801.846649453858
 30
0.0
 41
10.0
 42
10.0
 43
10.0
 50
90.0
  0
INSERT
  5
24A94
330
E0C3
100
AcDbEntity
  8
Maatvoering
 62
     0
440
 16777216
370
    -2
100
AcDbBlockReference
  2
_Oblique
 10
16086.72908186271
 20
6761.846649453859
 30
0.0
 41
10.0
 42
10.0
 43
10.0
 50
270.0
  0
POINT
  5
24A95
330
E0C3
100
AcDbEntity
  8
Defpoints
 62
     0
440
 16777216
100
AcDbPoint
 10
16117.38583459185
 20
6801.846649453858
 30
0.0
  0
POINT
  5
24A96
330
E0C3
100
AcDbEntity
  8
Defpoints
 62
     0
440
 16777216
100
AcDbPoint
 10
16122.00109392641
 20
6761.846649453859
 30
0.0
  0
POINT
  5
24A97
330
E0C3
100
AcDbEntity
  8
Defpoints
 62
     0
440
 16777216
100
AcDbPoint
 10
16086.72908186271
 20
6761.846649453859
 30
0.0
  0
ENDBLK
  5
E0C5
330
E0C3
100
AcDbEntity
  8
0
100
AcDbBlockEnd
  0
BLOCK
  5
E190
330
E18F
100
AcDbEntity
  8
0
100
AcDbBlockBegin
  2
*D8
 70
     1
 10
0.0
 20
0.0
 30
0.0
  3
*D8
  1

  0
LINE
  5
24A98
330
E18F
100
AcDbEntity
  8
Maatvoering
 62
     0
440
 16777216
370
    -2
100
AcDbLine
 10
16097.00109392641
 20
6971.846649453858
 30
0.0
 11
16071.72908186271
 21
6971.846649453858
 31
0.0
  0
LINE
  5
24A99
330
E18F
100
AcDbEntity
  8
Maatvoering
 62
     0
440
 16777216
370
    -2
100
AcDbLine
 10
16092.4054835492
 20
6932.072462379945
 30
0.0
 11
16071.72908186271
 21
6932.072462379945
 31
0.0
  0
LINE
  5
24A9A
330
E18F
100
AcDbEntity
  8
Maatvoering
 62
     0
440
 16777216
370
    -2
100
AcDbLine
 10
16086.72908186271
 20
6971.846649453858
 30
0.0
 11
16086.72908186271
 21
6981.846649453858
 31
0.0
  0
LINE
  5
24A9B
330
E18F
100
AcDbEntity
  8
Maatvoering
 62
     0
440
 16777216
370
    -2
100
AcDbLine
 10
16086.72908186271
 20
6932.072462379945
 30
0.0
 11
16086.72908186271
 21
6922.072462379944
 31
0.0
  0
MTEXT
  5
24A9C
330
E18F
100
AcDbEntity
  8
Maatvoering
 62
     0
440
 16777216
100
AcDbMText
 10
16064.01762210827
 20
6952.091252920161
 30
0.0
 40
15.0
 41
0.0
 46
0.0
 71
     5
 72
     1
  1
\A1;40
 73
     1
 44
1.0
  0
LINE
  5
24A9D
330
E18F
100
AcDbEntity
  8
Maatvoering
 62
     0
440
 16777216
370
    -2
100
AcDbLine
 10
16086.72908186271
 20
6971.846649453858
 30
0.0
 11
16086.72908186271
 21
6932.072462379945
 31
0.0
  0
INSERT
  5
24A9E
330
E18F
100
AcDbEntity
  8
Maatvoering
 62
     0
440
 16777216
370
    -2
100
AcDbBlockReference
  2
_Oblique
 10
16086.72908186271
 20
6971.846649453858
 30
0.0
 41
10.0
 42
10.0
 43
10.0
 50
270.0
  0
INSERT
  5
24A9F
330
E18F
100
AcDbEntity
  8
Maatvoering
 62
     0
440
 16777216
370
    -2
100
AcDbBlockReference
  2
_Oblique
 10
16086.72908186271
 20
6932.072462379945
 30
0.0
 41
10.0
 42
10.0
 43
10.0
 50
90.0
  0
POINT
  5
24AA0
330
E18F
100
AcDbEntity
  8
Defpoints
 62
     0
440
 16777216
100
AcDbPoint
 10
16122.00109392641
 20
6971.846649453858
 30
0.0
  0
POINT
  5
24AA1
330
E18F
100
AcDbEntity
  8
Defpoints
 62
     0
440
 16777216
100
AcDbPoint
 10
16117.4054835492
 20
6932.072462379945
 30
0.0
  0
POINT
  5
24AA2
330
E18F
100
AcDbEntity
  8
Defpoints
 62
     0
440
 16777216
100
AcDbPoint
 10
16086.72908186271
 20
6932.072462379945
 30
0.0
  0
ENDBLK
  5
E191
330
E18F
100
AcDbEntity
  8
0
100
AcDbBlockEnd
  0
BLOCK
  5
E394
330
E393
100
AcDbEntity
  8
0
100
AcDbBlockBegin
  2
sleufgat
 70
     0
 10
0.0
 20
0.0
 30
0.0
  3
sleufgat
  1

  0
LINE
  5
E813
330
E393
100
AcDbEntity
  8
Sleufgaten
100
AcDbLine
 10
9.190525707461347
 20
-0.7089692291519896
 30
0.0
 11
21.91844776882135
 21
12.01895283220801
 31
0.0
  0
LINE
  5
E814
330
E393
100
AcDbEntity
  8
Sleufgaten
100
AcDbLine
 10
12.01895283220801
 20
21.91844776882135
 30
0.0
 11
-0.7089692291483516
 21
9.190525707461347
 31
0.0
  0
ARC
  5
E815
330
E393
100
AcDbEntity
  8
Sleufgaten
100
AcDbCircle
 10
5.009009865385451
 20
5.009009865385451
 30
0.0
 40
7.083809685688178
100
AcDbArc
 50
143.8222713115476
 51
306.1777286884524
  0
ARC
  5
E816
330
E393
100
AcDbEntity
  8
Sleufgaten
100
AcDbCircle
 10
16.20046867429119
 20
16.20046867429119
 30
0.0
 40
7.083809685685265
100
AcDbArc
 50
323.8222713115055
 51
126.1777286884524
  0
ENDBLK
  5
E395
330
E393
100
AcDbEntity
  8
0
100
AcDbBlockEnd
  0
BLOCK
  5
E531
330
E530
100
AcDbEntity
  8
0
100
AcDbBlockBegin
  2
Leiding gat
 70
     0
 10
0.0
 20
0.0
 30
0.0
  3
Leiding gat
  1

  0
LINE
  5
17570
330
E530
100
AcDbEntity
  8
Sleufgaten
100
AcDbLine
 10
22.0
 20
62.98386676965583
 30
0.0
 11
-21.94999210939568
 21
62.98470059778719
 31
0.0
  0
ARC
  5
17571
330
E530
100
AcDbEntity
  8
Sleufgaten
100
AcDbCircle
 10
-18.29047116319998
 20
31.49193338402165
 30
0.0
 40
31.70965897726903
100
AcDbArc
 50
96.71808343494165
 51
263.2819165205627
  0
ARC
  5
17572
330
E530
100
AcDbEntity
  8
Sleufgaten
100
AcDbCircle
 10
-21.94999210939568
 20
61.4847005977872
 30
0.0
 40
1.5
100
AcDbArc
 50
90.0
 51
91.91051380018398
  0
ARC
  5
17573
330
E530
100
AcDbEntity
  8
Sleufgaten
100
AcDbCircle
 10
18.29017639714948
 20
31.49193338482656
 30
0.0
 40
31.70969346238812
100
AcDbArc
 50
276.7186124308768
 51
83.28138756933633
  0
LINE
  5
17574
330
E530
100
AcDbEntity
  8
Sleufgaten
100
AcDbLine
 10
22.0
 20
0.0
 30
0.0
 11
-22.0
 21
0.0
 31
0.0
  0
ENDBLK
  5
E532
330
E530
100
AcDbEntity
  8
0
100
AcDbBlockEnd
  0
BLOCK
  5
E611
330
E610
100
AcDbEntity
  8
0
100
AcDbBlockBegin
  2
*D11
 70
     1
 10
0.0
 20
0.0
 30
0.0
  3
*D11
  1

  0
LINE
  5
24AA3
330
E610
100
AcDbEntity
  8
Maatvoering
 62
     0
440
 16777216
370
    -2
100
AcDbLine
 10
16154.00109392641
 20
6970.096649453859
 30
0.0
 11
16139.00109392641
 21
6970.096649453859
 31
0.0
  0
LINE
  5
24AA4
330
E610
100
AcDbEntity
  8
Maatvoering
 62
     0
440
 16777216
370
    -2
100
AcDbLine
 10
16154.00109392641
 20
6971.846649453858
 30
0.0
 11
16139.00109392641
 21
6971.846649453858
 31
0.0
  0
LINE
  5
24AA5
330
E610
100
AcDbEntity
  8
Maatvoering
 62
     0
440
 16777216
370
    -2
100
AcDbLine
 10
16154.00109392641
 20
6970.096649453859
 30
0.0
 11
16154.00109392641
 21
6960.096649453859
 31
0.0
  0
LINE
  5
24AA6
330
E610
100
AcDbEntity
  8
Maatvoering
 62
     0
440
 16777216
370
    -2
100
AcDbLine
 10
16154.00109392641
 20
6971.846649453858
 30
0.0
 11
16154.00109392641
 21
6991.846649453859
 31
0.0
  0
LINE
  5
24AA7
330
E610
100
AcDbEntity
  8
Maatvoering
 62
     0
440
 16777216
370
    -2
100
AcDbLine
 10
16154.00109392641
 20
6991.846649453859
 30
0.0
 11
16164.00109392641
 21
6991.846649453859
 31
0.0
  0
INSERT
  5
24AA8
330
E610
100
AcDbEntity
  8
Maatvoering
 62
     0
440
 16777216
370
    -2
100
AcDbBlockReference
  2
_Oblique
 10
16154.00109392641
 20
6970.096649453859
 30
0.0
 41
10.0
 42
10.0
 43
10.0
 50
90.0
  0
INSERT
  5
24AA9
330
E610
100
AcDbEntity
  8
Maatvoering
 62
     0
440
 16777216
370
    -2
100
AcDbBlockReference
  2
_Oblique
 10
16154.00109392641
 20
6971.846649453858
 30
0.0
 41
10.0
 42
10.0
 43
10.0
 50
270.0
  0
MTEXT
  5
24AAA
330
E610
100
AcDbEntity
  8
Maatvoering
 62
     0
440
 16777216
100
AcDbMText
 10
16187.83294931522
 20
6991.846649453862
 30
0.0
 40
15.0
 41
0.0
 46
0.0
 71
     5
 72
     1
  1
\A1;1,75
 73
     1
 44
1.0
  0
POINT
  5
24AAB
330
E610
100
AcDbEntity
  8
Defpoints
 62
     0
440
 16777216
100
AcDbPoint
 10
16154.00109392641
 20
6970.096649453859
 30
0.0
  0
POINT
  5
24AAC
330
E610
100
AcDbEntity
  8
Defpoints
 62
     0
440
 16777216
100
AcDbPoint
 10
16154.00109392641
 20
6971.846649453858
 30
0.0
  0
POINT
  5
24AAD
330
E610
100
AcDbEntity
  8
Defpoints
 62
     0
440
 16777216
100
AcDbPoint
 10
16154.00109392641
 20
6971.846649453858
 30
0.0
  0
ENDBLK
  5
E612
330
E610
100
AcDbEntity
  8
0
100
AcDbBlockEnd
  0
BLOCK
  5
E668
330
E667
100
AcDbEntity
  8
0
100
AcDbBlockBegin
  2
*D12
 70
     1
 10
0.0
 20
0.0
 30
0.0
  3
*D12
  1

  0
LINE
  5
24AAE
330
E667
100
AcDbEntity
  8
Maatvoering
 62
     0
440
 16777216
370
    -2
100
AcDbLine
 10
18375.12869383948
 20
6736.846649453858
 30
0.0
 11
18375.12869383948
 21
6648.521345929942
 31
0.0
  0
LINE
  5
24AAF
330
E667
100
AcDbEntity
  8
Maatvoering
 62
     0
440
 16777216
370
    -2
100
AcDbLine
 10
16360.50691056741
 20
6736.846649453858
 30
0.0
 11
16360.50691056741
 21
6648.521345929942
 31
0.0
  0
LINE
  5
24AB0
330
E667
100
AcDbEntity
  8
Maatvoering
 62
     0
440
 16777216
370
    -2
100
AcDbLine
 10
18385.12869383948
 20
6663.521345929942
 30
0.0
 11
17486.9789559174
 21
6663.521345929942
 31
0.0
  0
LINE
  5
24AB1
330
E667
100
AcDbEntity
  8
Maatvoering
 62
     0
440
 16777216
370
    -2
100
AcDbLine
 10
16350.50691056741
 20
6663.521345929942
 30
0.0
 11
17207.26544977824
 21
6663.521345929942
 31
0.0
  0
INSERT
  5
24AB2
330
E667
100
AcDbEntity
  8
Maatvoering
 62
     0
440
 16777216
370
    -2
100
AcDbBlockReference
  2
_Oblique
 10
18375.12869383948
 20
6663.521345929942
 30
0.0
 41
10.0
 42
10.0
 43
10.0
  0
INSERT
  5
24AB3
330
E667
100
AcDbEntity
  8
Maatvoering
 62
     0
440
 16777216
370
    -2
100
AcDbBlockReference
  2
_Oblique
 10
16360.50691056741
 20
6663.521345929942
 30
0.0
 41
10.0
 42
10.0
 43
10.0
 50
180.0
  0
MTEXT
  5
24AB4
330
E667
100
AcDbEntity
  8
Maatvoering
 62
     0
440
 16777216
100
AcDbMText
 10
17347.12220284782
 20
6663.521345929942
 30
0.0
 40
15.0
 41
0.0
 46
0.0
 71
     5
 72
     1
  1
\A1;Maatwerk: 1400  t/m 7000
 73
     1
 44
1.0
  0
POINT
  5
24AB5
330
E667
100
AcDbEntity
  8
Defpoints
 62
     0
440
 16777216
100
AcDbPoint
 10
18375.12869383948
 20
6761.846649453858
 30
0.0
  0
POINT
  5
24AB6
330
E667
100
AcDbEntity
  8
Defpoints
 62
     0
440
 16777216
100
AcDbPoint
 10
16360.50691056741
 20
6761.846649453858
 30
0.0
  0
POINT
  5
24AB7
330
E667
100
AcDbEntity
  8
Defpoints
 62
     0
440
 16777216
100
AcDbPoint
 10
16360.50691056741
 20
6663.521345929942
 30
0.0
  0
ENDBLK
  5
E669
330
E667
100
AcDbEntity
  8
0
100
AcDbBlockEnd
  0
BLOCK
  5
146D6
330
146D5
100
AcDbEntity
  8
0
100
AcDbBlockBegin
  2
*D13
 70
     1
 10
0.0
 20
0.0
 30
0.0
  3
*D13
  1

  0
LINE
  5
24AB8
330
146D5
100
AcDbEntity
  8
Maatvoering
 62
     0
440
 16777216
370
    -2
100
AcDbLine
 10
17873.76974579967
 20
6844.624168354866
 30
0.0
 11
17873.91044520226
 21
6844.624168354866
 31
0.0
  0
LINE
  5
24AB9
330
146D5
100
AcDbEntity
  8
Maatvoering
 62
     0
440
 16777216
370
    -2
100
AcDbLine
 10
17873.74474185436
 20
6907.608375147214
 30
0.0
 11
17873.91044520226
 21
6907.608375147214
 31
0.0
  0
LINE
  5
24ABA
330
146D5
100
AcDbEntity
  8
Maatvoering
 62
     0
440
 16777216
370
    -2
100
AcDbLine
 10
17858.91044520226
 20
6834.624168354865
 30
0.0
 11
17858.91044520226
 21
6857.952390962068
 31
0.0
  0
LINE
  5
24ABB
330
146D5
100
AcDbEntity
  8
Maatvoering
 62
     0
440
 16777216
370
    -2
100
AcDbLine
 10
17858.91044520226
 20
6917.608375147214
 30
0.0
 11
17858.91044520226
 21
6893.27981251732
 31
0.0
  0
INSERT
  5
24ABC
330
146D5
100
AcDbEntity
  8
Maatvoering
 62
     0
440
 16777216
370
    -2
100
AcDbBlockReference
  2
_Oblique
 10
17858.91044520226
 20
6844.624168354866
 30
0.0
 41
10.0
 42
10.0
 43
10.0
 50
270.0
  0
INSERT
  5
24ABD
330
146D5
100
AcDbEntity
  8
Maatvoering
 62
     0
440
 16777216
370
    -2
100
AcDbBlockReference
  2
_Oblique
 10
17858.91044520226
 20
6907.608375147214
 30
0.0
 41
10.0
 42
10.0
 43
10.0
 50
90.0
  0
MTEXT
  5
24ABE
330
146D5
100
AcDbEntity
  8
Maatvoering
 62
     0
440
 16777216
100
AcDbMText
 10
17858.91044520226
 20
6875.616101739698
 30
0.0
 40
15.0
 41
0.0
 46
0.0
 71
     5
 72
     1
  1
\A1;63
 73
     1
 44
1.0
  0
POINT
  5
24ABF
330
146D5
100
AcDbEntity
  8
Defpoints
 62
     0
440
 16777216
100
AcDbPoint
 10
17858.76974579967
 20
6844.624168354866
 30
0.0
  0
POINT
  5
24AC0
330
146D5
100
AcDbEntity
  8
Defpoints
 62
     0
440
 16777216
100
AcDbPoint
 10
17858.74474185437
 20
6907.608375147214
 30
0.0
  0
POINT
  5
24AC1
330
146D5
100
AcDbEntity
  8
Defpoints
 62
     0
440
 16777216
100
AcDbPoint
 10
17858.91044520226
 20
6907.608375147214
 30
0.0
  0
ENDBLK
  5
146D7
330
146D5
100
AcDbEntity
  8
0
100
AcDbBlockEnd
  0
BLOCK
  5
146EA
330
146E9
100
AcDbEntity
  8
0
100
AcDbBlockBegin
  2
*D14
 70
     1
 10
0.0
 20
0.0
 30
0.0
  3
*D14
  1

  0
LINE
  5
24AC2
330
146E9
100
AcDbEntity
  8
Maatvoering
 62
     0
440
 16777216
370
    -2
100
AcDbLine
 10
17808.76987594018
 20
6981.522523889629
 30
0.0
 11
17808.76987594018
 21
7020.357617429858
 31
0.0
  0
LINE
  5
24AC3
330
146E9
100
AcDbEntity
  8
Maatvoering
 62
     0
440
 16777216
370
    -2
100
AcDbLine
 10
17908.7696156592
 20
6981.522522867951
 30
0.0
 11
17908.7696156592
 21
7020.357617429858
 31
0.0
  0
LINE
  5
24AC4
330
146E9
100
AcDbEntity
  8
Maatvoering
 62
     0
440
 16777216
370
    -2
100
AcDbLine
 10
17798.76987594018
 20
7005.357617429858
 30
0.0
 11
17827.93072935663
 21
7005.357617429858
 31
0.0
  0
LINE
  5
24AC5
330
146E9
100
AcDbEntity
  8
Maatvoering
 62
     0
440
 16777216
370
    -2
100
AcDbLine
 10
17918.7696156592
 20
7005.357617429858
 30
0.0
 11
17889.6087648273
 21
7005.357617429858
 31
0.0
  0
INSERT
  5
24AC6
330
146E9
100
AcDbEntity
  8
Maatvoering
 62
     0
440
 16777216
370
    -2
100
AcDbBlockReference
  2
_Oblique
 10
17808.76987594018
 20
7005.357617429858
 30
0.0
 41
10.0
 42
10.0
 43
10.0
 50
180.0
  0
INSERT
  5
24AC7
330
146E9
100
AcDbEntity
  8
Maatvoering
 62
     0
440
 16777216
370
    -2
100
AcDbBlockReference
  2
_Oblique
 10
17908.7696156592
 20
7005.357617429858
 30
0.0
 41
10.0
 42
10.0
 43
10.0
  0
MTEXT
  5
24AC8
330
146E9
100
AcDbEntity
  8
Maatvoering
 62
     0
440
 16777216
100
AcDbMText
 10
17858.76974709197
 20
7005.357617429858
 30
0.0
 40
15.0
 41
0.0
 46
0.0
 71
     5
 72
     1
  1
\A1;100
 73
     1
 44
1.0
  0
POINT
  5
24AC9
330
146E9
100
AcDbEntity
  8
Defpoints
 62
     0
440
 16777216
100
AcDbPoint
 10
17808.76987594018
 20
6871.52252388963
 30
0.0
  0
POINT
  5
24ACA
330
146E9
100
AcDbEntity
  8
Defpoints
 62
     0
440
 16777216
100
AcDbPoint
 10
17908.7696156592
 20
6871.52252286795
 30
0.0
  0
POINT
  5
24ACB
330
146E9
100
AcDbEntity
  8
Defpoints
 62
     0
440
 16777216
100
AcDbPoint
 10
17908.7696156592
 20
7005.357617429858
 30
0.0
  0
ENDBLK
  5
146EB
330
146E9
100
AcDbEntity
  8
0
100
AcDbBlockEnd
  0
BLOCK
  5
146FD
330
146FC
100
AcDbEntity
  8
0
100
AcDbBlockBegin
  2
*D15
 70
     1
 10
0.0
 20
0.0
 30
0.0
  3
*D15
  1

  0
LINE
  5
24ACC
330
146FC
100
AcDbEntity
  8
Maatvoering
 62
     0
440
 16777216
370
    -2
100
AcDbLine
 10
18314.42833946917
 20
6906.85573244281
 30
0.0
 11
18331.39890221765
 21
6889.885169694332
 31
0.0
  0
LINE
  5
24ACD
330
146FC
100
AcDbEntity
  8
Maatvoering
 62
     0
440
 16777216
370
    -2
100
AcDbLine
 10
18331.39890221765
 20
6889.885169694332
 30
0.0
 11
18338.46997002952
 21
6882.814101882468
 31
0.0
  0
LINE
  5
24ACE
330
146FC
100
AcDbEntity
  8
Maatvoering
 62
     0
440
 16777216
370
    -2
100
AcDbLine
 10
18338.46997002952
 20
6882.814101882468
 30
0.0
 11
18348.46997002951
 21
6882.814101882466
 31
0.0
  0
INSERT
  5
24ACF
330
146FC
100
AcDbEntity
  8
Maatvoering
 62
     0
440
 16777216
370
    -2
100
AcDbBlockReference
  2
_Oblique
 10
18321.49940728103
 20
6899.784664630944
 30
0.0
 41
10.0
 42
10.0
 43
10.0
 50
135.0000000000052
  0
INSERT
  5
24AD0
330
146FC
100
AcDbEntity
  8
Maatvoering
 62
     0
440
 16777216
370
    -2
100
AcDbBlockReference
  2
_Oblique
 10
18331.39890221765
 20
6889.885169694332
 30
0.0
 41
10.0
 42
10.0
 43
10.0
 50
315.0000000000052
  0
MTEXT
  5
24AD1
330
146FC
100
AcDbEntity
  8
Maatvoering
 62
     0
440
 16777216
100
AcDbMText
 10
18358.47679131191
 20
6882.814101882466
 30
0.0
 40
15.0
 41
0.0
 46
0.0
 71
     5
 72
     1
  1
\A1;14
 73
     1
 44
1.0
  0
POINT
  5
24AD2
330
146FC
100
AcDbEntity
  8
Defpoints
 62
     0
440
 16777216
100
AcDbPoint
 10
18321.49940728104
 20
6899.784664630953
 30
0.0
  0
POINT
  5
24AD3
330
146FC
100
AcDbEntity
  8
Defpoints
 62
     0
440
 16777216
100
AcDbPoint
 10
18331.39890221765
 20
6889.885169694338
 30
0.0
  0
POINT
  5
24AD4
330
146FC
100
AcDbEntity
  8
Defpoints
 62
     0
440
 16777216
100
AcDbPoint
 10
18331.39890221765
 20
6889.885169694332
 30
0.0
  0
ENDBLK
  5
146FE
330
146FC
100
AcDbEntity
  8
0
100
AcDbBlockEnd
  0
BLOCK
  5
16EEC
330
16EEB
100
AcDbEntity
  8
0
100
AcDbBlockBegin
  2
*D16
 70
     1
 10
0.0
 20
0.0
 30
0.0
  3
*D16
  1

  0
LINE
  5
24AD5
330
16EEB
100
AcDbEntity
  8
Maatvoering
 62
     0
440
 16777216
370
    -2
100
AcDbLine
 10
16144.75109392641
 20
6792.084732472857
 30
0.0
 11
16144.75109392641
 21
6725.532607237444
 31
0.0
  0
LINE
  5
24AD6
330
16EEB
100
AcDbEntity
  8
Maatvoering
 62
     0
440
 16777216
370
    -2
100
AcDbLine
 10
16189.75109392641
 20
6749.346649453859
 30
0.0
 11
16189.75109392641
 21
6725.532607237444
 31
0.0
  0
LINE
  5
24AD7
330
16EEB
100
AcDbEntity
  8
Maatvoering
 62
     0
440
 16777216
370
    -2
100
AcDbLine
 10
16134.75109392641
 20
6740.532607237445
 30
0.0
 11
16146.14945681864
 21
6740.532607237445
 31
0.0
  0
LINE
  5
24AD8
330
16EEB
100
AcDbEntity
  8
Maatvoering
 62
     0
440
 16777216
370
    -2
100
AcDbLine
 10
16199.75109392641
 20
6740.532607237445
 30
0.0
 11
16188.35273103419
 21
6740.532607237445
 31
0.0
  0
INSERT
  5
24AD9
330
16EEB
100
AcDbEntity
  8
Maatvoering
 62
     0
440
 16777216
370
    -2
100
AcDbBlockReference
  2
_Oblique
 10
16144.75109392641
 20
6740.532607237445
 30
0.0
 41
10.0
 42
10.0
 43
10.0
 50
180.0
  0
INSERT
  5
24ADA
330
16EEB
100
AcDbEntity
  8
Maatvoering
 62
     0
440
 16777216
370
    -2
100
AcDbBlockReference
  2
_Oblique
 10
16189.75109392641
 20
6740.532607237445
 30
0.0
 41
10.0
 42
10.0
 43
10.0
  0
MTEXT
  5
24ADB
330
16EEB
100
AcDbEntity
  8
Maatvoering
 62
     0
440
 16777216
100
AcDbMText
 10
16167.25109392641
 20
6740.532607237445
 30
0.0
 40
15.0
 41
0.0
 46
0.0
 71
     5
 72
     1
  1
\A1;45
 73
     1
 44
1.0
  0
POINT
  5
24ADC
330
16EEB
100
AcDbEntity
  8
Defpoints
 62
     0
440
 16777216
100
AcDbPoint
 10
16144.75109392641
 20
6817.084732472856
 30
0.0
  0
POINT
  5
24ADD
330
16EEB
100
AcDbEntity
  8
Defpoints
 62
     0
440
 16777216
100
AcDbPoint
 10
16189.75109392641
 20
6774.34664945386
 30
0.0
  0
POINT
  5
24ADE
330
16EEB
100
AcDbEntity
  8
Defpoints
 62
     0
440
 16777216
100
AcDbPoint
 10
16189.75109392641
 20
6740.532607237445
 30
0.0
  0
ENDBLK
  5
16EED
330
16EEB
100
AcDbEntity
  8
0
100
AcDbBlockEnd
  0
BLOCK
  5
17062
330
17061
100
AcDbEntity
  8
0
100
AcDbBlockBegin
  2
*D17
 70
     1
 10
0.0
 20
0.0
 30
0.0
  3
*D17
  1

  0
LINE
  5
24ADF
330
17061
100
AcDbEntity
  8
Maatvoering
 62
     0
440
 16777216
370
    -2
100
AcDbLine
 10
16191.50109392641
 20
6801.346649453859
 30
0.0
 11
16191.50109392641
 21
6827.388421372504
 31
0.0
  0
LINE
  5
24AE0
330
17061
100
AcDbEntity
  8
Maatvoering
 62
     0
440
 16777216
370
    -2
100
AcDbLine
 10
16181.50109392641
 20
6806.846649453858
 30
0.0
 11
16181.50109392641
 21
6827.388421372504
 31
0.0
  0
LINE
  5
24AE1
330
17061
100
AcDbEntity
  8
Maatvoering
 62
     0
440
 16777216
370
    -2
100
AcDbLine
 10
16201.50109392641
 20
6817.388421372503
 30
0.0
 11
16171.50109392641
 21
6817.388421372503
 31
0.0
  0
MTEXT
  5
24AE2
330
17061
100
AcDbEntity
  8
Maatvoering
 62
     0
440
 16777216
100
AcDbMText
 10
16186.8043979959
 20
6842.754512571213
 30
0.0
 40
15.0
 41
0.0
 46
0.0
 71
     5
 72
     1
  1
\A1;10
 73
     1
 44
1.0
  0
INSERT
  5
24AE3
330
17061
100
AcDbEntity
  8
Maatvoering
 62
     0
440
 16777216
370
    -2
100
AcDbBlockReference
  2
_Oblique
 10
16191.50109392641
 20
6817.388421372503
 30
0.0
 41
10.0
 42
10.0
 43
10.0
  0
INSERT
  5
24AE4
330
17061
100
AcDbEntity
  8
Maatvoering
 62
     0
440
 16777216
370
    -2
100
AcDbBlockReference
  2
_Oblique
 10
16181.50109392641
 20
6817.388421372503
 30
0.0
 41
10.0
 42
10.0
 43
10.0
 50
180.0
  0
POINT
  5
24AE5
330
17061
100
AcDbEntity
  8
Defpoints
 62
     0
440
 16777216
100
AcDbPoint
 10
16191.50109392641
 20
6781.346649453858
 30
0.0
  0
POINT
  5
24AE6
330
17061
100
AcDbEntity
  8
Defpoints
 62
     0
440
 16777216
100
AcDbPoint
 10
16181.50109392641
 20
6786.84664945386
 30
0.0
  0
POINT
  5
24AE7
330
17061
100
AcDbEntity
  8
Defpoints
 62
     0
440
 16777216
100
AcDbPoint
 10
16181.50109392641
 20
6817.388421372503
 30
0.0
  0
ENDBLK
  5
17063
330
17061
100
AcDbEntity
  8
0
100
AcDbBlockEnd
  0
BLOCK
  5
176EF
330
176EE
100
AcDbEntity
  8
0
100
AcDbBlockBegin
  2
*D18
 70
     1
 10
0.0
 20
0.0
 30
0.0
  3
*D18
  1

  0
LINE
  5
24AE8
330
176EE
100
AcDbEntity
  8
Maatvoering
 62
     0
440
 16777216
370
    -2
100
AcDbLine
 10
17776.12458093752
 20
6916.608566434859
 30
0.0
 11
17778.95963522476
 21
6916.608566434859
 31
0.0
  0
LINE
  5
24AE9
330
176EE
100
AcDbEntity
  8
Maatvoering
 62
     0
440
 16777216
370
    -2
100
AcDbLine
 10
17809.95585515122
 20
6907.607958233147
 30
0.0
 11
17778.95963522476
 21
6907.607958233147
 31
0.0
  0
LINE
  5
24AEA
330
176EE
100
AcDbEntity
  8
Maatvoering
 62
     0
440
 16777216
370
    -2
100
AcDbLine
 10
17788.95963522476
 20
6916.608566434859
 30
0.0
 11
17788.95963522476
 21
6926.608566434859
 31
0.0
  0
LINE
  5
24AEB
330
176EE
100
AcDbEntity
  8
Maatvoering
 62
     0
440
 16777216
370
    -2
100
AcDbLine
 10
17788.95963522476
 20
6907.607958233147
 30
0.0
 11
17788.95963522476
 21
6897.607958233148
 31
0.0
  0
MTEXT
  5
24AEC
330
176EE
100
AcDbEntity
  8
Maatvoering
 62
     0
440
 16777216
100
AcDbMText
 10
17769.68207081224
 20
6909.248028236085
 30
0.0
 40
15.0
 41
0.0
 46
0.0
 71
     5
 72
     1
  1
\A1;9
 73
     1
 44
1.0
  0
INSERT
  5
24AED
330
176EE
100
AcDbEntity
  8
Maatvoering
 62
     0
440
 16777216
370
    -2
100
AcDbBlockReference
  2
_Oblique
 10
17788.95963522476
 20
6916.608566434859
 30
0.0
 41
10.0
 42
10.0
 43
10.0
 50
270.0
  0
INSERT
  5
24AEE
330
176EE
100
AcDbEntity
  8
Maatvoering
 62
     0
440
 16777216
370
    -2
100
AcDbBlockReference
  2
_Oblique
 10
17788.95963522476
 20
6907.607958233147
 30
0.0
 41
10.0
 42
10.0
 43
10.0
 50
90.0
  0
POINT
  5
24AEF
330
176EE
100
AcDbEntity
  8
Defpoints
 62
     0
440
 16777216
100
AcDbPoint
 10
17801.12458093752
 20
6916.608566434859
 30
0.0
  0
POINT
  5
24AF0
330
176EE
100
AcDbEntity
  8
Defpoints
 62
     0
440
 16777216
100
AcDbPoint
 10
17834.95585515122
 20
6907.607958233147
 30
0.0
  0
POINT
  5
24AF1
330
176EE
100
AcDbEntity
  8
Defpoints
 62
     0
440
 16777216
100
AcDbPoint
 10
17788.95963522476
 20
6907.607958233147
 30
0.0
  0
ENDBLK
  5
176F0
330
176EE
100
AcDbEntity
  8
0
100
AcDbBlockEnd
  0
BLOCK
  5
17716
330
17715
100
AcDbEntity
  8
0
100
AcDbBlockBegin
  2
*D19
 70
     1
 10
0.0
 20
0.0
 30
0.0
  3
*D19
  1

  0
LINE
  5
24AF2
330
17715
100
AcDbEntity
  8
Maatvoering
 62
     0
440
 16777216
370
    -2
100
AcDbLine
 10
17810.6529435283
 20
6844.624091463491
 30
0.0
 11
17773.95963522476
 21
6844.624091463491
 31
0.0
  0
LINE
  5
24AF3
330
17715
100
AcDbEntity
  8
Maatvoering
 62
     0
440
 16777216
370
    -2
100
AcDbLine
 10
17763.95963522476
 20
6817.084732472856
 30
0.0
 11
17773.95963522476
 21
6817.084732472856
 31
0.0
  0
LINE
  5
24AF4
330
17715
100
AcDbEntity
  8
Maatvoering
 62
     0
440
 16777216
370
    -2
100
AcDbLine
 10
17788.95963522476
 20
6844.624091463491
 30
0.0
 11
17788.95963522476
 21
6854.624091463492
 31
0.0
  0
LINE
  5
24AF5
330
17715
100
AcDbEntity
  8
Maatvoering
 62
     0
440
 16777216
370
    -2
100
AcDbLine
 10
17788.95963522476
 20
6817.084732472856
 30
0.0
 11
17788.95963522476
 21
6807.084732472858
 31
0.0
  0
MTEXT
  5
24AF6
330
17715
100
AcDbEntity
  8
Maatvoering
 62
     0
440
 16777216
100
AcDbMText
 10
17764.1790154419
 20
6830.854411968177
 30
0.0
 40
15.0
 41
0.0
 46
0.0
 71
     5
 72
     1
  1
\A1;28
 73
     1
 44
1.0
  0
LINE
  5
24AF7
330
17715
100
AcDbEntity
  8
Maatvoering
 62
     0
440
 16777216
370
    -2
100
AcDbLine
 10
17788.95963522476
 20
6844.624091463491
 30
0.0
 11
17788.95963522476
 21
6817.084732472856
 31
0.0
  0
INSERT
  5
24AF8
330
17715
100
AcDbEntity
  8
Maatvoering
 62
     0
440
 16777216
370
    -2
100
AcDbBlockReference
  2
_Oblique
 10
17788.95963522476
 20
6844.624091463491
 30
0.0
 41
10.0
 42
10.0
 43
10.0
 50
270.0
  0
INSERT
  5
24AF9
330
17715
100
AcDbEntity
  8
Maatvoering
 62
     0
440
 16777216
370
    -2
100
AcDbBlockReference
  2
_Oblique
 10
17788.95963522476
 20
6817.084732472856
 30
0.0
 41
10.0
 42
10.0
 43
10.0
 50
90.0
  0
POINT
  5
24AFA
330
17715
100
AcDbEntity
  8
Defpoints
 62
     0
440
 16777216
100
AcDbPoint
 10
17835.6529435283
 20
6844.624091463491
 30
0.0
  0
POINT
  5
24AFB
330
17715
100
AcDbEntity
  8
Defpoints
 62
     0
440
 16777216
100
AcDbPoint
 10
17788.95963522476
 20
6817.084732472856
 30
0.0
  0
POINT
  5
24AFC
330
17715
100
AcDbEntity
  8
Defpoints
 62
     0
440
 16777216
100
AcDbPoint
 10
17788.95963522476
 20
6817.084732472856
 30
0.0
  0
ENDBLK
  5
17717
330
17715
100
AcDbEntity
  8
0
100
AcDbBlockEnd
  0
BLOCK
  5
2011D
330
2011C
100
AcDbEntity
  8
0
100
AcDbBlockBegin
  2
Profiel met arc
 70
     0
 10
0.0
 20
0.0
 30
0.0
  3
Profiel met arc
  1

  0
HATCH
  5
2011F
330
2011C
100
AcDbEntity
  8
Arcering
100
AcDbHatch
 10
0.0
 20
0.0
 30
0.0
210
0.0
220
0.0
230
1.0
  2
SOLID
 70
     1
 71
     0
 91
        1
 92
        7
 72
     1
 73
     1
 93
       44
 10
37.5
 20
190.5
 42
0.0
 10
37.50000000000182
 20
204.5
 42
0.4142135623730951
 10
32.00000000000182
 20
210.0
 42
0.0
 10
-32.0
 20
210.0
 42
0.4142135623730951
 10
-37.5
 20
204.5
 42
0.0
 10
-37.49999999999818
 20
173.2739674105951
 42
0.2897069828160869
 10
-34.20188842903371
 20
168.1331443937933
 42
0.0
 10
-12.522205340445
 20
155.8616256644027
 42
-0.2702350251186518
 10
-11.0
 20
153.2508550991879
 42
0.0
 10
-10.99999999999818
 20
56.7491449008121
 42
-0.2702350251191361
 10
-12.52220534044681
 20
54.13837433559456
 42
0.0
 10
-34.20188842902098
 20
42.38270214737531
 42
0.2702350251193151
 10
-37.49999999999818
 20
36.72603258940217
 42
0.0
 10
-37.5
 20
5.5
 42
0.4142135623730951
 10
-32.0
 20
0.0
 42
0.0
 10
32.00000000000182
 20
0.0
 42
0.4142135623730951
 10
37.50000000000182
 20
5.5
 42
0.0
 10
37.50000000000182
 20
19.50000000000091
 42
0.4142135623730572
 10
32.00000000000182
 20
25.0
 42
0.0
 10
27.50000000000182
 20
25.0
 42
0.0
 10
27.50000000000182
 20
23.25
 42
0.0
 10
32.00000000000182
 20
23.25
 42
-0.4142135623730951
 10
35.75000000000182
 20
19.5
 42
0.0
 10
35.75000000000182
 20
5.49999999999909
 42
-0.4142135623730551
 10
32.00000000000182
 20
1.75
 42
0.0
 10
-32.0
 20
1.75
 42
-0.4142135623730951
 10
-35.75
 20
5.5
 42
0.0
 10
-35.74999999999818
 20
36.72603258940398
 42
-0.2702350251192529
 10
-33.33984154428435
 20
40.8597526509975
 42
0.0
 10
-11.66015845570837
 20
52.61542483921949
 42
0.2702350251190508
 10
-9.249999999998181
 20
56.7491449008121
 42
0.0
 10
-9.25
 20
153.2508550991879
 42
0.2702350251186524
 10
-11.66015845570473
 20
157.3845751607769
 42
0.0
 10
-33.33984154429345
 20
169.6560938901684
 42
-0.2974539767901779
 10
-35.74999999999818
 20
173.2739674105951
 42
0.0
 10
-35.75
 20
204.5
 42
-0.4142135623730951
 10
-32.0
 20
208.25
 42
0.0
 10
32.00000000000182
 20
208.25
 42
-0.4142135623730951
 10
35.75000000000182
 20
204.5
 42
0.0
 10
35.75
 20
190.4999999999991
 42
-0.4142135623731162
 10
32.0
 20
186.75
 42
0.0
 10
27.5
 20
186.7500000000009
 42
0.0
 10
27.50000000000182
 20
185.0
 42
0.0
 10
32.0
 20
185.0
 42
0.4142135623730951
 97
        0
 75
     1
 76
     1
 47
0.2294768063719135
 98
        1
 10
34.56687496538871
 20
185.8800842186756
450
        0
451
        0
460
0.0
461
0.0
452
        0
462
1.0
453
        2
463
0.0
 63
     5
421
      255
463
1.0
 63
     2
421
 16776960
470
LINEAR
1001
GradientColor1ACI
1070
     5
1001
GradientColor2ACI
1070
     2
1001
ACAD
1010
0.0
1020
0.0
1030
0.0
  0
INSERT
  5
20120
330
2011C
100
AcDbEntity
  8
0
100
AcDbBlockReference
  2
Profiel
 10
0.0
 20
0.0
 30
0.0
  0
ENDBLK
  5
2011E
330
2011C
100
AcDbEntity
  8
0
100
AcDbBlockEnd
  0
BLOCK
  5
23DBF
330
23DBE
100
AcDbEntity
  8
0
100
AcDbBlockBegin
  2
Copyright
 70
     0
 10
0.0
 20
0.0
 30
0.0
  3
Copyright
  1

  0
MTEXT
  5
23DC0
102
{ACAD_XDICTIONARY
360
23DC1
102
}
330
23DBE
100
AcDbEntity
  8
Hulplijnen
100
AcDbMText
 10
-37.22126011953879
 20
18.79323769363691
 30
0.0
 40
25.0
 41
1371.12400958262
 46
0.0
 71
     1
 72
     1
  1
\pt150,200;COPYRIGHT: Gehele of gedeeltelijke overname, verveelvoudiging op welke wijze dan ook en/of commercieel gebruik van deze informatie is niet toegestaan, tenzij hiervoor uitdrukkelijk schriftelijke toestemming is verleend door DUOFOR B.V.
 73
     1
 44
1.3
1001
ACAD
1000
ACAD_MTEXT_COLUMN_INFO_BEGIN
1070
    75
1070
     2
1070
    79
1070
     0
1070
    76
1070
     1
1070
    78
1070
     0
1070
    48
1040
1371.12400958262
1070
    49
1040
0.0
1070
    50
1070
     1
1040
323.5838010130781
1000
ACAD_MTEXT_COLUMN_INFO_END
  0
ENDBLK
  5
23DC2
330
23DBE
100
AcDbEntity
  8
0
100
AcDbBlockEnd
  0
ENDSEC
  0
SECTION
  2
ENTITIES
  0
DIMENSION
  5
D9B2
102
{ACAD_XDICTIONARY
360
DA53
102
}
330
1F
100
AcDbEntity
  8
Maatvoering
100
AcDbDimension
280
     0
  2
*D2
 10
16223.79047350207
 20
6946.846649453859
 30
0.0
 11
16223.79047350207
 21
6959.346649453862
 31
0.0
 70
   160
 71
     5
 42
25.0
 73
     0
 74
     0
 75
     0
  3
Maatvoering 2 detail 1-5
100
AcDbAlignedDimension
 13
16186.00109392641
 23
6971.846649453858
 33
0.0
 14
16186.00109392641
 24
6946.846649453859
 34
0.0
 50
90.0
100
AcDbRotatedDimension
1001
AcadAnnotative
1000
AnnotativeData
1002
{
1070
     1
1070
     1
1002
}
  0
LINE
  5
DB27
330
1F
100
AcDbEntity
  8
Aanzichtlijnen
 62
     0
100
AcDbLine
 10
16360.50691056741
 20
6971.846649453858
 30
0.0
 11
17360.50691056741
 21
6971.846649453858
 31
0.0
  0
LINE
  5
DB28
330
1F
100
AcDbEntity
  8
Aanzichtlijnen
 62
     0
100
AcDbLine
 10
16360.50691056741
 20
6946.846649453859
 30
0.0
 11
17360.50691056741
 21
6946.84664945386
 31
0.0
  0
LINE
  5
DB29
330
1F
100
AcDbEntity
  8
Aanzichtlijnen
 62
   253
100
AcDbLine
 10
16360.50691056741
 20
6932.072462379945
 30
0.0
 11
17360.50691056741
 21
6932.072462379945
 31
0.0
  0
LINE
  5
DB2A
330
1F
100
AcDbEntity
  8
Aanzichtlijnen
100
AcDbLine
 10
16360.50691056741
 20
6916.608566434859
 30
0.0
 11
17360.50691056741
 21
6916.608566434859
 31
0.0
  0
LINE
  5
DB2B
330
1F
100
AcDbEntity
  8
Aanzichtlijnen
 62
     7
100
AcDbLine
 10
16360.50691056741
 20
6786.84664945386
 30
0.0
 11
17360.50691056741
 21
6786.84664945386
 31
0.0
  0
LINE
  5
DB4A
330
1F
100
AcDbEntity
  8
Aanzichtlijnen
 62
     0
100
AcDbLine
 10
16360.50691056741
 20
6761.846649453858
 30
0.0
 11
17360.50691056741
 21
6761.846649453859
 31
0.0
  0
LINE
  5
DB4B
330
1F
100
AcDbEntity
  8
Aanzichtlijnen
 62
     7
100
AcDbLine
 10
16360.50691056741
 20
6971.846649453858
 30
0.0
 11
16360.50691056741
 21
6761.846649453859
 31
0.0
  0
LINE
  5
DB4C
330
1F
100
AcDbEntity
  8
Aanzichtlijnen
100
AcDbLine
 10
16360.50691056741
 20
6817.084732472858
 30
0.0
 11
17360.50691056741
 21
6817.084732472856
 31
0.0
  0
LINE
  5
DB53
330
1F
100
AcDbEntity
  8
Aanzichtlijnen
 62
   253
100
AcDbLine
 10
16360.50691056741
 20
6801.846649453884
 30
0.0
 11
17360.50691056741
 21
6801.846649453858
 31
0.0
  0
DIMENSION
  5
DBE5
102
{ACAD_XDICTIONARY
360
DBE6
102
}
330
1F
100
AcDbEntity
  8
Maatvoering
100
AcDbDimension
280
     0
  2
*D3
 10
18375.12869383948
 20
6701.79203740466
 30
0.0
 11
17365.52724756567
 21
6701.79203740466
 31
0.0
 70
   160
  1
Standaard: 3000 / 3300 / 3600 / 3900 / 4200 / 4600 / 5000
 71
     5
 42
2014.621783272069
 73
     0
 74
     0
 75
     0
  3
Maatvoering 2 detail 1-5
100
AcDbAlignedDimension
 13
16360.50691056741
 23
6761.846649453857
 33
0.0
 14
18375.12869383948
 24
6761.846649453861
 34
0.0
100
AcDbRotatedDimension
1001
AcadAnnotative
1000
AnnotativeData
1002
{
1070
     1
1070
     1
1002
}
  0
DIMENSION
  5
DF94
102
{ACAD_XDICTIONARY
360
DF95
102
}
330
1F
100
AcDbEntity
  8
Maatvoering
100
AcDbDimension
280
     0
  2
*D4
 10
16191.50109392641
 20
6701.792037404658
 30
0.0
 11
16154.0245245732
 21
6701.792037404658
 31
0.0
 70
    32
 71
     5
 42
74.95313870641985
 73
     0
 74
     0
 75
     0
  3
Maatvoering 2 detail 1-5
100
AcDbAlignedDimension
 13
16116.54795521999
 23
6766.630215054515
 33
0.0
 14
16191.50109392641
 24
6767.346649453859
 34
0.0
100
AcDbRotatedDimension
1001
AcadAnnotative
1000
AnnotativeData
1002
{
1070
     1
1070
     1
1002
}
1001
ACAD
1000
DSTYLE
1002
{
1070
   147
1040
10.0
1002
}
  0
DIMENSION
  5
DFA7
102
{ACAD_XDICTIONARY
360
DFA8
102
}
330
1F
100
AcDbEntity
  8
Maatvoering
100
AcDbDimension
280
     0
  2
*D5
 10
16261.39964712755
 20
6761.846649453859
 30
0.0
 11
16261.39964712755
 21
6866.846649453862
 31
0.0
 70
    32
 71
     5
 42
210.0
 73
     0
 74
     0
 75
     0
  3
Maatvoering 2 detail 1-5
100
AcDbAlignedDimension
 13
16186.00109392641
 23
6971.846649453858
 33
0.0
 14
16186.00109392641
 24
6761.846649453859
 34
0.0
 50
90.0
100
AcDbRotatedDimension
1001
AcadAnnotative
1000
AnnotativeData
1002
{
1070
     1
1070
     1
1002
}
  0
DIMENSION
  5
E0AB
102
{ACAD_XDICTIONARY
360
E0AC
102
}
330
1F
100
AcDbEntity
  8
Maatvoering
100
AcDbDimension
280
     0
  2
*D6
 10
16086.72908186271
 20
6801.846649453858
 30
0.0
 11
16071.21902791894
 21
6868.428615838529
 31
0.0
 70
   160
 71
     5
 42
130.2258129260854
 73
     0
 74
     0
 75
     0
  3
Maatvoering 2 detail 1-5
100
AcDbAlignedDimension
 13
16117.4054835492
 23
6932.072462379945
 33
0.0
 14
16117.38583459185
 24
6801.846649453858
 34
0.0
 50
90.0
100
AcDbRotatedDimension
1001
AcadAnnotative
1000
AnnotativeData
1002
{
1070
     1
1070
     1
1002
}
  0
DIMENSION
  5
E0BE
102
{ACAD_XDICTIONARY
360
E0BF
102
}
330
1F
100
AcDbEntity
  8
Maatvoering
100
AcDbDimension
280
     0
  2
*D7
 10
16086.72908186271
 20
6761.846649453859
 30
0.0
 11
16064.01762210827
 21
6782.088726183278
 31
0.0
 70
   160
 71
     5
 42
40.0
 73
     0
 74
     0
 75
     0
  3
Maatvoering 2 detail 1-5
100
AcDbAlignedDimension
 13
16117.38583459185
 23
6801.846649453858
 33
0.0
 14
16122.00109392641
 24
6761.846649453859
 34
0.0
 50
90.0
100
AcDbRotatedDimension
1001
AcadAnnotative
1000
AnnotativeData
1002
{
1070
     1
1070
     1
1002
}
  0
DIMENSION
  5
E189
102
{ACAD_XDICTIONARY
360
E18A
102
}
330
1F
100
AcDbEntity
  8
Maatvoering
100
AcDbDimension
280
     0
  2
*D8
 10
16086.72908186271
 20
6932.072462379945
 30
0.0
 11
16064.01762210827
 21
6952.091252920161
 31
0.0
 70
   160
 71
     5
 42
39.77418707391462
 73
     0
 74
     0
 75
     0
  3
Maatvoering 2 detail 1-5
100
AcDbAlignedDimension
 13
16122.00109392641
 23
6971.846649453858
 33
0.0
 14
16117.4054835492
 24
6932.072462379945
 34
0.0
 50
90.0
100
AcDbRotatedDimension
1001
AcadAnnotative
1000
AnnotativeData
1002
{
1070
     1
1070
     1
1002
}
  0
INSERT
  5
E39A
330
1F
100
AcDbEntity
  8
Sleufgaten
100
AcDbBlockReference
  2
sleufgat
 10
16398.58171038771
 20
6823.979675064646
 30
0.0
  0
INSERT
  5
E3BD
330
1F
100
AcDbEntity
  8
Sleufgaten
100
AcDbBlockReference
  2
sleufgat
 10
16398.58171038771
 20
6905.439656432474
 30
0.0
 41
-1.0
 50
180.0
  0
INSERT
  5
E3C3
330
1F
100
AcDbEntity
  8
Sleufgaten
100
AcDbBlockReference
  2
sleufgat
 10
16448.58171038771
 20
6823.979675064646
 30
0.0
  0
INSERT
  5
E3C4
330
1F
100
AcDbEntity
  8
Sleufgaten
100
AcDbBlockReference
  2
sleufgat
 10
16448.58171038771
 20
6905.439656432474
 30
0.0
 41
-1.0
 50
180.0
  0
INSERT
  5
E3C9
330
1F
100
AcDbEntity
  8
Sleufgaten
100
AcDbBlockReference
  2
sleufgat
 10
16498.58171038771
 20
6823.979675064646
 30
0.0
  0
INSERT
  5
E3CA
330
1F
100
AcDbEntity
  8
Sleufgaten
100
AcDbBlockReference
  2
sleufgat
 10
16498.58171038771
 20
6905.439656432474
 30
0.0
 41
-1.0
 50
180.0
  0
INSERT
  5
E3CB
330
1F
100
AcDbEntity
  8
Sleufgaten
100
AcDbBlockReference
  2
sleufgat
 10
16548.58171038771
 20
6823.979675064646
 30
0.0
  0
INSERT
  5
E3CC
330
1F
100
AcDbEntity
  8
Sleufgaten
100
AcDbBlockReference
  2
sleufgat
 10
16548.58171038771
 20
6905.439656432474
 30
0.0
 41
-1.0
 50
180.0
  0
INSERT
  5
E3CD
330
1F
100
AcDbEntity
  8
Sleufgaten
100
AcDbBlockReference
  2
sleufgat
 10
16598.58171038771
 20
6823.979675064646
 30
0.0
  0
INSERT
  5
E3CE
330
1F
100
AcDbEntity
  8
Sleufgaten
100
AcDbBlockReference
  2
sleufgat
 10
16598.58171038771
 20
6905.439656432474
 30
0.0
 41
-1.0
 50
180.0
  0
INSERT
  5
E3CF
330
1F
100
AcDbEntity
  8
Sleufgaten
100
AcDbBlockReference
  2
sleufgat
 10
16648.58171038772
 20
6823.979675064646
 30
0.0
  0
INSERT
  5
E3D0
330
1F
100
AcDbEntity
  8
Sleufgaten
100
AcDbBlockReference
  2
sleufgat
 10
16648.58171038772
 20
6905.439656432474
 30
0.0
 41
-1.0
 50
180.0
  0
INSERT
  5
E3D1
330
1F
100
AcDbEntity
  8
Sleufgaten
100
AcDbBlockReference
  2
sleufgat
 10
16698.58171038771
 20
6823.979675064646
 30
0.0
  0
INSERT
  5
E3D2
330
1F
100
AcDbEntity
  8
Sleufgaten
100
AcDbBlockReference
  2
sleufgat
 10
16698.58171038771
 20
6905.439656432474
 30
0.0
 41
-1.0
 50
180.0
  0
INSERT
  5
E3D3
330
1F
100
AcDbEntity
  8
Sleufgaten
100
AcDbBlockReference
  2
sleufgat
 10
16748.58171038771
 20
6823.979675064646
 30
0.0
  0
INSERT
  5
E3D4
330
1F
100
AcDbEntity
  8
Sleufgaten
100
AcDbBlockReference
  2
sleufgat
 10
16748.58171038771
 20
6905.439656432474
 30
0.0
 41
-1.0
 50
180.0
  0
INSERT
  5
E538
330
1F
100
AcDbEntity
  8
Sleufgaten
100
AcDbBlockReference
  2
Leiding gat
 10
16876.86578129789
 20
6844.605463531923
 30
0.0
  0
DIMENSION
  5
E56D
102
{ACAD_XDICTIONARY
360
E56E
102
}
330
1F
100
AcDbEntity
  8
Maatvoering
100
AcDbDimension
280
     0
  2
*D11
 10
16154.00109392641
 20
6971.846649453858
 30
0.0
 11
16187.83294931522
 21
6991.846649453862
 31
0.0
 70
    32
 71
     5
 42
1.75
 73
     0
 74
     0
 75
     0
  3
Maatvoering 2 detail 1-5
100
AcDbAlignedDimension
 13
16154.00109392641
 23
6970.096649453859
 33
0.0
 14
16154.00109392641
 24
6971.846649453858
 34
0.0
 50
90.0
100
AcDbRotatedDimension
1001
AcadAnnotative
1000
AnnotativeData
1002
{
1070
     1
1070
     1
1002
}
1001
ACAD
1000
DSTYLE
1002
{
1070
    45
1040
0.0
1070
   140
1040
15.0
1070
   147
1040
5.0
1070
    42
1040
0.0
1070
    44
1040
15.0
1070
    46
1040
10.0
1070
    41
1040
10.0
1070
   271
1070
     2
1002
}
  0
LINE
  5
E647
330
1F
100
AcDbEntity
  8
Aanzichtlijnen
 62
     0
100
AcDbLine
 10
18375.12869383948
 20
6971.846649453858
 30
0.0
 11
17375.12869383948
 21
6971.846649453858
 31
0.0
  0
LINE
  5
E648
330
1F
100
AcDbEntity
  8
Aanzichtlijnen
 62
     0
100
AcDbLine
 10
18375.12869383948
 20
6946.846649453859
 30
0.0
 11
17375.12869383948
 21
6946.84664945386
 31
0.0
  0
LINE
  5
E649
330
1F
100
AcDbEntity
  8
Aanzichtlijnen
 62
   253
100
AcDbLine
 10
18375.12869383949
 20
6932.072462379945
 30
0.0
 11
17375.12869383948
 21
6932.072462379945
 31
0.0
  0
LINE
  5
E64A
330
1F
100
AcDbEntity
  8
Aanzichtlijnen
100
AcDbLine
 10
18375.12869383948
 20
6916.608566434859
 30
0.0
 11
17375.12869383948
 21
6916.608566434859
 31
0.0
  0
LINE
  5
E64B
330
1F
100
AcDbEntity
  8
Aanzichtlijnen
 62
     7
100
AcDbLine
 10
18375.12869383948
 20
6786.84664945386
 30
0.0
 11
17375.12869383948
 21
6786.84664945386
 31
0.0
  0
LINE
  5
E64C
330
1F
100
AcDbEntity
  8
Aanzichtlijnen
 62
     0
100
AcDbLine
 10
18375.12869383948
 20
6761.846649453858
 30
0.0
 11
17375.12869383948
 21
6761.846649453859
 31
0.0
  0
LINE
  5
E64D
330
1F
100
AcDbEntity
  8
Aanzichtlijnen
 62
     7
100
AcDbLine
 10
18375.12869383948
 20
6971.846649453858
 30
0.0
 11
18375.12869383948
 21
6761.846649453859
 31
0.0
  0
LINE
  5
E64F
330
1F
100
AcDbEntity
  8
Aanzichtlijnen
100
AcDbLine
 10
18375.12869383948
 20
6817.084732472858
 30
0.0
 11
17375.12869383948
 21
6817.084732472856
 31
0.0
  0
LINE
  5
E650
330
1F
100
AcDbEntity
  8
Aanzichtlijnen
 62
   253
100
AcDbLine
 10
18375.12869383948
 20
6801.846649453884
 30
0.0
 11
17375.12869383948
 21
6801.846649453858
 31
0.0
  0
DIMENSION
  5
E651
102
{ACAD_XDICTIONARY
360
E652
102
}
330
1F
100
AcDbEntity
  8
Maatvoering
100
AcDbDimension
280
     0
  2
*D12
 10
16360.50691056741
 20
6663.521345929942
 30
0.0
 11
17347.12220284782
 21
6663.521345929942
 31
0.0
 70
   160
  1
Maatwerk: 1400  t/m 7000
 71
     5
 42
2014.621783272072
 73
     0
 74
     0
 75
     0
  3
Maatvoering 2 detail 1-5
100
AcDbAlignedDimension
 13
18375.12869383948
 23
6761.846649453858
 33
0.0
 14
16360.50691056741
 24
6761.846649453858
 34
0.0
 50
180.0
100
AcDbRotatedDimension
1001
AcadAnnotative
1000
AnnotativeData
1002
{
1070
     1
1070
     1
1002
}
  0
INSERT
  5
E656
330
1F
100
AcDbEntity
  8
Sleufgaten
100
AcDbBlockReference
  2
sleufgat
 10
18337.05389401918
 20
6823.979675064646
 30
0.0
 41
-1.0
  0
INSERT
  5
E657
330
1F
100
AcDbEntity
  8
Sleufgaten
100
AcDbBlockReference
  2
sleufgat
 10
18337.05389401918
 20
6905.439656432474
 30
0.0
 50
180.0
  0
INSERT
  5
E658
330
1F
100
AcDbEntity
  8
Sleufgaten
100
AcDbBlockReference
  2
sleufgat
 10
18287.05389401918
 20
6823.979675064646
 30
0.0
 41
-1.0
  0
INSERT
  5
E659
330
1F
100
AcDbEntity
  8
Sleufgaten
100
AcDbBlockReference
  2
sleufgat
 10
18287.05389401918
 20
6905.439656432474
 30
0.0
 50
180.0
  0
INSERT
  5
E65A
330
1F
100
AcDbEntity
  8
Sleufgaten
100
AcDbBlockReference
  2
sleufgat
 10
18237.05389401918
 20
6823.979675064646
 30
0.0
 41
-1.0
  0
INSERT
  5
E65B
330
1F
100
AcDbEntity
  8
Sleufgaten
100
AcDbBlockReference
  2
sleufgat
 10
18237.05389401918
 20
6905.439656432474
 30
0.0
 50
180.0
  0
INSERT
  5
E65C
330
1F
100
AcDbEntity
  8
Sleufgaten
100
AcDbBlockReference
  2
sleufgat
 10
18187.05389401918
 20
6823.979675064646
 30
0.0
 41
-1.0
  0
INSERT
  5
E65D
330
1F
100
AcDbEntity
  8
Sleufgaten
100
AcDbBlockReference
  2
sleufgat
 10
18187.05389401918
 20
6905.439656432474
 30
0.0
 50
180.0
  0
INSERT
  5
E65E
330
1F
100
AcDbEntity
  8
Sleufgaten
100
AcDbBlockReference
  2
sleufgat
 10
18137.05389401918
 20
6823.979675064646
 30
0.0
 41
-1.0
  0
INSERT
  5
E65F
330
1F
100
AcDbEntity
  8
Sleufgaten
100
AcDbBlockReference
  2
sleufgat
 10
18137.05389401918
 20
6905.439656432474
 30
0.0
 50
180.0
  0
INSERT
  5
E660
330
1F
100
AcDbEntity
  8
Sleufgaten
100
AcDbBlockReference
  2
sleufgat
 10
18087.05389401918
 20
6823.979675064646
 30
0.0
 41
-1.0
  0
INSERT
  5
E661
330
1F
100
AcDbEntity
  8
Sleufgaten
100
AcDbBlockReference
  2
sleufgat
 10
18087.05389401918
 20
6905.439656432474
 30
0.0
 50
180.0
  0
INSERT
  5
E662
330
1F
100
AcDbEntity
  8
Sleufgaten
100
AcDbBlockReference
  2
sleufgat
 10
18037.05389401918
 20
6823.979675064646
 30
0.0
 41
-1.0
  0
INSERT
  5
E663
330
1F
100
AcDbEntity
  8
Sleufgaten
100
AcDbBlockReference
  2
sleufgat
 10
18037.05389401918
 20
6905.439656432474
 30
0.0
 50
180.0
  0
INSERT
  5
E664
330
1F
100
AcDbEntity
  8
Sleufgaten
100
AcDbBlockReference
  2
sleufgat
 10
17987.05389401918
 20
6823.979675064646
 30
0.0
 41
-1.0
  0
INSERT
  5
E665
330
1F
100
AcDbEntity
  8
Sleufgaten
100
AcDbBlockReference
  2
sleufgat
 10
17987.05389401918
 20
6905.439656432474
 30
0.0
 50
180.0
  0
INSERT
  5
E666
330
1F
100
AcDbEntity
  8
Sleufgaten
100
AcDbBlockReference
  2
Leiding gat
 10
17858.76974579967
 20
6844.624091463491
 30
0.0
 41
-1.0
  0
DIMENSION
  5
146D0
102
{ACAD_XDICTIONARY
360
146D1
102
}
330
1F
100
AcDbEntity
  8
Maatvoering
100
AcDbDimension
280
     0
  2
*D13
 10
17858.91044520226
 20
6907.608375147214
 30
0.0
 11
17858.91044520226
 21
6875.616101739698
 31
0.0
 70
   160
 71
     5
 42
62.98420679234732
 73
     0
 74
     0
 75
     0
  3
Maatvoering 2 detail 1-5
100
AcDbAlignedDimension
 13
17858.76974579967
 23
6844.624168354866
 33
0.0
 14
17858.74474185437
 24
6907.608375147214
 34
0.0
 50
90.0
100
AcDbRotatedDimension
1001
AcadAnnotative
1000
AnnotativeData
1002
{
1070
     1
1070
     1
1002
}
1001
ACAD
1000
DSTYLE
1002
{
1070
    42
1040
15.0
1070
   147
1040
10.0
1002
}
  0
DIMENSION
  5
146E4
102
{ACAD_XDICTIONARY
360
146E5
102
}
330
1F
100
AcDbEntity
  8
Maatvoering
100
AcDbDimension
280
     0
  2
*D14
 10
17908.7696156592
 20
7005.357617429858
 30
0.0
 11
17858.76974709197
 21
7005.357617429858
 31
0.0
 70
   160
 71
     5
 42
99.99973971902363
 73
     0
 74
     0
 75
     0
  3
Maatvoering 2 detail 1-5
100
AcDbAlignedDimension
 13
17808.76987594018
 23
6871.52252388963
 33
0.0
 14
17908.7696156592
 24
6871.52252286795
 34
0.0
100
AcDbRotatedDimension
1001
AcadAnnotative
1000
AnnotativeData
1002
{
1070
     1
1070
     1
1002
}
1001
ACAD
1000
DSTYLE
1002
{
1070
    42
1040
110.0
1070
   147
1040
15.0
1002
}
  0
DIMENSION
  5
146F7
102
{ACAD_XDICTIONARY
360
146F8
102
}
330
1F
100
AcDbEntity
  8
Maatvoering
100
AcDbDimension
280
     0
  2
*D15
 10
18331.39890221765
 20
6889.885169694332
 30
0.0
 11
18358.47679131191
 21
6882.814101882466
 31
0.0
 70
   161
 71
     5
 42
14.00000000000091
 73
     0
 74
     0
 75
     0
  3
Maatvoering 2 detail 1-5
100
AcDbAlignedDimension
 13
18321.49940728104
 23
6899.784664630949
 33
0.0
 14
18331.39890221765
 24
6889.885169694338
 34
0.0
1001
AcadAnnotative
1000
AnnotativeData
1002
{
1070
     1
1070
     1
1002
}
1001
ACAD
1000
DSTYLE
1002
{
1070
    42
1040
0.0
1070
    44
1040
0.0
1070
   147
1040
0.0
1002
}
  0
DIMENSION
  5
16EE6
102
{ACAD_XDICTIONARY
360
16EE7
102
}
330
1F
100
AcDbEntity
  8
Maatvoering
100
AcDbDimension
280
     0
  2
*D16
 10
16189.75109392641
 20
6740.532607237445
 30
0.0
 11
16167.25109392641
 21
6740.532607237445
 31
0.0
 70
   160
 71
     5
 42
44.99999999999817
 73
     0
 74
     0
 75
     0
  3
Maatvoering 2 detail 1-5
100
AcDbAlignedDimension
 13
16144.75109392641
 23
6817.084732472856
 33
0.0
 14
16189.75109392641
 24
6774.34664945386
 34
0.0
100
AcDbRotatedDimension
1001
AcadAnnotative
1000
AnnotativeData
1002
{
1070
     1
1070
     1
1002
}
1001
ACAD
1000
DSTYLE
1002
{
1070
   147
1040
10.0
1002
}
  0
DIMENSION
  5
1705B
102
{ACAD_XDICTIONARY
360
1705C
102
}
330
1F
100
AcDbEntity
  8
Maatvoering
100
AcDbDimension
280
     0
  2
*D17
 10
16181.50109392641
 20
6817.388421372503
 30
0.0
 11
16186.8043979959
 21
6842.754512571213
 31
0.0
 70
   160
 71
     5
 42
10.0
 73
     0
 74
     0
 75
     0
  3
Maatvoering 2 detail 1-5
100
AcDbAlignedDimension
 13
16191.50109392641
 23
6781.346649453858
 33
0.0
 14
16181.50109392641
 24
6786.84664945386
 34
0.0
 50
180.0
100
AcDbRotatedDimension
1001
AcadAnnotative
1000
AnnotativeData
1002
{
1070
     1
1070
     1
1002
}
1001
ACAD
1000
DSTYLE
1002
{
1070
    44
1040
10.0
1070
    42
1040
20.0
1070
   147
1040
5.0
1002
}
  0
DIMENSION
  5
176E9
102
{ACAD_XDICTIONARY
360
176EA
102
}
330
1F
100
AcDbEntity
  8
Maatvoering
100
AcDbDimension
280
     0
  2
*D18
 10
17788.95963522476
 20
6907.607958233147
 30
0.0
 11
17769.68207081224
 21
6909.248028236085
 31
0.0
 70
   160
 71
     5
 42
9.000608201711656
 73
     0
 74
     0
 75
     0
  3
Maatvoering 2 detail 1-5
100
AcDbAlignedDimension
 13
17801.12458093752
 23
6916.608566434859
 33
0.0
 14
17834.95585515122
 24
6907.607958233147
 34
0.0
 50
90.0
100
AcDbRotatedDimension
1001
AcadAnnotative
1000
AnnotativeData
1002
{
1070
     1
1070
     1
1002
}
1001
ACAD
1000
DSTYLE
1002
{
1070
    44
1040
10.0
1002
}
  0
DIMENSION
  5
17710
102
{ACAD_XDICTIONARY
360
17711
102
}
330
1F
100
AcDbEntity
  8
Maatvoering
100
AcDbDimension
280
     0
  2
*D19
 10
17788.95963522476
 20
6817.084732472856
 30
0.0
 11
17764.1790154419
 21
6830.854411968177
 31
0.0
 70
   160
 71
     5
 42
27.53935899063435
 73
     0
 74
     0
 75
     0
  3
Maatvoering 2 detail 1-5
100
AcDbAlignedDimension
 13
17835.6529435283
 23
6844.624091463491
 33
0.0
 14
17788.95963522476
 24
6817.084732472856
 34
0.0
 50
90.0
100
AcDbRotatedDimension
1001
AcadAnnotative
1000
AnnotativeData
1002
{
1070
     1
1070
     1
1002
}
  0
INSERT
  5
20121
330
1F
100
AcDbEntity
  8
0
100
AcDbBlockReference
  2
Profiel met arc
 10
16154.00109392641
 20
6761.846649453859
 30
0.0
  0
LWPOLYLINE
  5
23DCB
330
1F
100
AcDbEntity
  8
Hulplijnen
100
AcDbPolyline
 90
        4
 70
     1
 43
0.0
 10
15863.9071807794
 20
5561.907114552441
 10
18616.48801910786
 20
5561.907114552441
 10
18616.48801910786
 20
7444.395269549189
 10
15863.9071807794
 20
7444.395269549189
  0
INSERT
  5
23DCC
330
1F
100
AcDbEntity
  8
Hulplijnen
100
AcDbBlockReference
  2
Copyright
 10
16618.18323596459
 20
5872.211286395668
 30
0.0
  0
LINE
  5
23F8E
330
1F
100
AcDbEntity
  8
Breeklijn
100
AcDbLine
 10
17360.50691055135
 20
7050.050489529636
 30
0.0
 11
17360.50691055135
 21
6735.296113319972
 31
0.0
  0
LINE
  5
23FBE
330
1F
100
AcDbEntity
  8
Breeklijn
100
AcDbLine
 10
17375.12869382342
 20
7050.050489529636
 30
0.0
 11
17375.12869382342
 21
6735.296113319972
 31
0.0
  0
VIEWPORT
  5
23FE0
102
{ACAD_XDICTIONARY
360
23FE1
102
}
330
23FD9
100
AcDbEntity
 67
     1
  8
0
100
AcDbViewport
 10
143.4359283447265
 20
98.18158054351806
 30
0.0
 40
496.7522511460124
 41
222.1517806396485
 68
     1
 69
     1
 12
143.4359283447265
 22
98.18158054351806
 13
0.0
 23
0.0
 14
10.0
 24
10.0
 15
10.0
 25
10.0
 16
0.0
 26
0.0
 36
1.0
 17
0.0
 27
0.0
 37
0.0
 42
50.0
 43
0.0
 44
0.0
 45
222.1517806396485
 50
0.0
 51
0.0
 72
  1000
 90
   819232
  1

281
     0
 71
     1
 74
     0
110
0.0
120
0.0
130
0.0
111
1.0
121
0.0
131
0.0
112
0.0
122
1.0
132
0.0
 79
     0
146
0.0
170
     0
 61
     5
348
F5
292
     1
282
     1
141
0.0
142
0.0
 63
   250
421
  3355443
  0
VIEWPORT
  5
23FE4
102
{ACAD_XDICTIONARY
360
23FE5
102
}
330
23FD9
100
AcDbEntity
 67
     1
  8
Hulplijnen
100
AcDbViewport
 10
143.4359130859375
 20
98.18158769607544
 30
0.0
 40
229.4974609375
 41
157.0905403137207
 68
     2
 69
     2
 12
201.8102801697023
 22
-2387.360599767224
 13
0.0
 23
0.0
 14
10.0
 24
10.0
 15
10.0
 25
10.0
 16
-0.0000000000181899
 26
0.0
 36
89783.14936059669
 17
17410.14001464844
 27
8890.31591796875
 37
0.0
 42
50.0
 43
0.0
 44
0.0
 45
2411.943224772826
 50
0.0
 51
0.0
 72
  1000
 90
   827488
  1

281
     0
 71
     1
 74
     0
110
0.0
120
0.0
130
0.0
111
1.0
121
0.0
131
0.0
112
0.0
122
1.0
132
0.0
 79
     0
146
0.0
170
     0
 61
     5
348
F5
292
     1
282
     1
141
0.0
142
0.0
 63
   250
421
  3355443
  0
ENDSEC
  0
SECTION
  2
OBJECTS
  0
DICTIONARY
  5
C
330
0
100
AcDbDictionary
281
     1
  3
ACAD_BACKGROUND
350
223
  3
ACAD_CIP_PREVIOUS_PRODUCT_INFO
350
2AD8
  3
ACAD_COLOR
350
6B
  3
ACAD_DETAILVIEWSTYLE
350
2AD2
  3
ACAD_GROUP
350
D
  3
ACAD_IMAGE_DICT
350
381C
  3
ACAD_IMAGE_VARS
350
381E
  3
ACAD_LAYOUT
350
1A
  3
ACAD_MATERIAL
350
6A
  3
ACAD_MLEADERSTYLE
350
12D
  3
ACAD_MLINESTYLE
350
17
  3
ACAD_PDFDEFINITIONS
350
AF18
  3
ACAD_PLOTSETTINGS
350
19
  3
ACAD_PLOTSTYLENAME
350
E
  3
ACAD_SCALELIST
350
10C
  3
ACAD_SECTIONVIEWSTYLE
350
2AD0
  3
ACAD_TABLESTYLE
350
7E
  3
ACAD_VISUALSTYLE
350
EF
  3
ACAD_WIPEOUT_VARS
350
9FAF
  3
ACDB_RECOMPOSE_DATA
350
24B08
  3
AcDbVariableDictionary
350
5E
  3
AEC_PROPERTY_SET_DEFS
350
3399
  3
BNS_VARIABLES
350
6726
  3
SY_ROOT_DICTIONARY
350
67B4
  0
DICTIONARY
  5
1FF
330
2
100
AcDbDictionary
280
     1
281
     1
  3
ACAD_LAYERSTATES
360
200
  3
ACLYDICTIONARY
360
2C29
  0
DICTIONARY
  5
13C
330
10
100
AcDbDictionary
280
     1
281
     1
  0
DICTIONARY
  5
41F8
330
41F7
100
AcDbDictionary
280
     1
281
     1
  0
DICTIONARY
  5
1CE
330
1F
100
AcDbDictionary
280
     1
281
     1
  3
ACAD_SORTENTS
360
269
  0
DICTIONARY
  5
23DC1
330
23DC0
100
AcDbDictionary
280
     1
281
     1
  3
ACAD_MTEXT_2008_RT
360
24B07
  0
DICTIONARY
  5
DA53
330
D9B2
100
AcDbDictionary
280
     1
281
     1
  3
AcDbContextDataManager
360
DA54
  0
DICTIONARY
  5
DBE6
330
DBE5
100
AcDbDictionary
280
     1
281
     1
  3
AcDbContextDataManager
360
DBE8
  0
DICTIONARY
  5
DF95
330
DF94
100
AcDbDictionary
280
     1
281
     1
  3
AcDbContextDataManager
360
DF96
  0
DICTIONARY
  5
DFA8
330
DFA7
100
AcDbDictionary
280
     1
281
     1
  3
AcDbContextDataManager
360
DFA9
  0
DICTIONARY
  5
E0AC
330
E0AB
100
AcDbDictionary
280
     1
281
     1
  3
AcDbContextDataManager
360
E0AD
  0
DICTIONARY
  5
E0BF
330
E0BE
100
AcDbDictionary
280
     1
281
     1
  3
AcDbContextDataManager
360
E0C0
  0
DICTIONARY
  5
E18A
330
E189
100
AcDbDictionary
280
     1
281
     1
  3
AcDbContextDataManager
360
E18C
  0
DICTIONARY
  5
E56E
330
E56D
100
AcDbDictionary
280
     1
281
     1
  3
AcDbContextDataManager
360
E56F
  0
DICTIONARY
  5
E652
330
E651
100
AcDbDictionary
280
     1
281
     1
  3
AcDbContextDataManager
360
E653
  0
DICTIONARY
  5
146D1
330
146D0
100
AcDbDictionary
280
     1
281
     1
  3
AcDbContextDataManager
360
146D2
  0
DICTIONARY
  5
146E5
330
146E4
100
AcDbDictionary
280
     1
281
     1
  3
AcDbContextDataManager
360
146E6
  0
DICTIONARY
  5
146F8
330
146F7
100
AcDbDictionary
280
     1
281
     1
  3
AcDbContextDataManager
360
146F9
  0
DICTIONARY
  5
16EE7
330
16EE6
100
AcDbDictionary
280
     1
281
     1
  3
AcDbContextDataManager
360
16EE8
  0
DICTIONARY
  5
1705C
330
1705B
100
AcDbDictionary
280
     1
281
     1
  3
AcDbContextDataManager
360
1705E
  0
DICTIONARY
  5
176EA
330
176E9
100
AcDbDictionary
280
     1
281
     1
  3
AcDbContextDataManager
360
176EB
  0
DICTIONARY
  5
17711
330
17710
100
AcDbDictionary
280
     1
281
     1
  3
AcDbContextDataManager
360
17712
  0
DICTIONARY
  5
23FE1
330
23FE0
100
AcDbDictionary
280
     1
281
     1
  3
ASDK_XREC_ANNOTATION_SCALE_INFO
360
23FE2
  0
DICTIONARY
  5
23FE5
330
23FE4
100
AcDbDictionary
280
     1
281
     1
  3
ASDK_XREC_ANNOTATION_SCALE_INFO
360
23FE6
  0
DICTIONARY
  5
223
102
{ACAD_REACTORS
330
C
102
}
330
C
100
AcDbDictionary
281
     1
  0
XRECORD
  5
2AD8
102
{ACAD_REACTORS
330
C
102
}
330
C
100
AcDbXrecord
280
     1
300
ACD
300
2013
300
ACD_F_S
  0
DICTIONARY
  5
6B
102
{ACAD_REACTORS
330
C
102
}
330
C
100
AcDbDictionary
281
     1
  0
DICTIONARY
  5
2AD2
102
{ACAD_REACTORS
330
C
102
}
330
C
100
AcDbDictionary
281
     1
  3
Metric50
350
2AD3
  0
DICTIONARY
  5
D
102
{ACAD_REACTORS
330
C
102
}
330
C
100
AcDbDictionary
281
     1
  0
DICTIONARY
  5
381C
102
{ACAD_REACTORS
330
C
102
}
330
C
100
AcDbDictionary
281
     1
  0
RASTERVARIABLES
  5
381E
102
{ACAD_REACTORS
330
C
102
}
330
C
100
AcDbRasterVariables
 90
        0
 70
     1
 71
     1
 72
     1
  0
DICTIONARY
  5
1A
102
{ACAD_REACTORS
330
C
102
}
330
C
100
AcDbDictionary
281
     1
  3
Layout1
350
23FDA
  3
Model
350
22
  0
DICTIONARY
  5
6A
102
{ACAD_REACTORS
330
C
102
}
330
C
100
AcDbDictionary
281
     1
  3
ByBlock
350
ED
  3
ByLayer
350
EC
  3
Global
350
EE
  0
DICTIONARY
  5
12D
102
{ACAD_REACTORS
330
C
102
}
330
C
100
AcDbDictionary
281
     1
  3
Standard
350
12E
  0
DICTIONARY
  5
17
102
{ACAD_REACTORS
330
C
102
}
330
C
100
AcDbDictionary
281
     1
  3
Standard
350
18
  0
DICTIONARY
  5
AF18
102
{ACAD_REACTORS
330
C
102
}
330
C
100
AcDbDictionary
281
     1
  0
DICTIONARY
  5
19
102
{ACAD_REACTORS
330
C
102
}
330
C
100
AcDbDictionary
281
     1
  0
ACDBDICTIONARYWDFLT
  5
E
102
{ACAD_REACTORS
330
C
102
}
330
C
100
AcDbDictionary
281
     1
  3
Normal
350
F
100
AcDbDictionaryWithDefault
340
F
  0
DICTIONARY
  5
10C
102
{ACAD_REACTORS
330
C
102
}
330
C
100
AcDbDictionary
281
     1
  3
A0
350
10D
  3
A1
350
1BE
  3
A2
350
1A217
  3
A3
350
1C0
  3
A4
350
1A218
  3
A5
350
1C2
  3
A6
350
1C3
  3
A7
350
1C4
  3
A8
350
1A219
  3
A9
350
1A21A
  3
B0
350
1C7
  3
B1
350
1C8
  3
B2
350
1A21B
  3
B3
350
1A21C
  3
B4
350
1A21D
  3
B5
350
1A21E
  3
B6
350
1A21F
  0
DICTIONARY
  5
2AD0
102
{ACAD_REACTORS
330
C
102
}
330
C
100
AcDbDictionary
281
     1
  3
Metric50
350
2AD1
  0
DICTIONARY
  5
7E
102
{ACAD_REACTORS
330
C
102
}
330
C
100
AcDbDictionary
281
     1
  3
Standard
350
7F
  0
DICTIONARY
  5
EF
102
{ACAD_REACTORS
330
C
102
}
330
C
100
AcDbDictionary
281
     1
  3
2dWireframe
350
F5
  3
Basic
350
F4
  3
Brighten
350
FB
  3
ColorChange
350
FF
  3
Conceptual
350
F8
  3
Dim
350
FA
  3
EdgeColorOff
350
1E6
  3
Facepattern
350
FE
  3
Flat
350
F0
  3
FlatWithEdges
350
F1
  3
Gouraud
350
F2
  3
GouraudWithEdges
350
F3
  3
Hidden
350
F7
  3
JitterOff
350
1E4
  3
Linepattern
350
FD
  3
OverhangOff
350
1E5
  3
Realistic
350
F9
  3
Shaded
350
1F3
  3
Shaded with edges
350
1F2
  3
Shades of Gray
350
1EF
  3
Sketchy
350
1F0
  3
Thicken
350
FC
  3
Wireframe
350
F6
  3
X-Ray
350
1F1
  0
WIPEOUTVARIABLES
  5
9FAF
102
{ACAD_REACTORS
330
C
102
}
330
C
100
AcDbWipeoutVariables
 70
     1
  0
XRECORD
  5
24B08
102
{ACAD_REACTORS
330
C
102
}
330
C
100
AcDbXrecord
280
     1
 90
        1
330
7F
330
1705B
330
176E9
330
23DC0
  0
DICTIONARY
  5
5E
102
{ACAD_REACTORS
330
C
102
}
330
C
100
AcDbDictionary
281
     1
  3
ANNOALLVISIBLE
350
4B84
  3
CANNOSCALE
350
146
  3
CMLEADERSTYLE
350
145
  3
CTABLESTYLE
350
84
  3
CVIEWDETAILSTYLE
350
3363
  3
CVIEWSECTIONSTYLE
350
3364
  3
DIMASSOC
350
5F
  3
EXPORTMODELSPACE
350
1EE2
  3
HIDETEXT
350
63
  3
HPLAYER
350
8208
  3
HPTRANSPARENCY
350
8209
  3
LAYEREVAL
350
1AE
  3
LAYERNOTIFY
350
1AF
  0
DICTIONARY
  5
3399
102
{ACAD_REACTORS
330
C
102
}
330
C
100
AcDbDictionary
281
     1
  0
DICTIONARY
  5
6726
102
{ACAD_REACTORS
330
C
102
}
330
C
100
AcDbDictionary
281
     1
  3
BNS_SPRHATCH_IMAGEOVERLAP
350
6727
  0
DICTIONARY
  5
67B4
102
{ACAD_REACTORS
330
C
102
}
330
C
100
AcDbDictionary
281
     1
  3
SY_VIEWSTD
350
67B5
  0
DICTIONARY
  5
200
102
{ACAD_REACTORS
330
1FF
102
}
330
1FF
100
AcDbDictionary
281
     1
  0
DICTIONARY
  5
2C29
102
{ACAD_REACTORS
330
1FF
102
}
330
1FF
100
AcDbDictionary
281
     1
1001
ACAD
1000
<AllUsed
  0
SORTENTSTABLE
  5
269
102
{ACAD_REACTORS
330
1CE
102
}
330
1CE
100
AcDbSortentsTable
330
1F
331
E3D3
  5
1004E
331
E65D
  5
10125
331
E65F
  5
101B5
331
E656
  5
10066
331
DFA7
  5
FF2B
331
E538
  5
10050
331
E661
  5
101B8
331
20121
  5
20121
331
DB53
  5
FD70
331
E39A
  5
FF5E
331
D9B2
  5
FCC7
331
E3BD
  5
FF88
331
E663
  5
101BA
331
E649
  5
10056
331
E56D
  5
10051
331
E189
  5
FF60
331
E665
  5
101BC
331
E64B
  5
10059
331
E3CA
  5
1003F
331
1705B
  5
1D5E4
331
E64D
  5
1005F
331
E3CC
  5
10041
331
23DCB
  5
23DCB
331
E3C3
  5
FF9E
331
DB27
  5
FD2F
331
176E9
  5
1D5E9
331
E658
  5
10068
331
DB29
  5
FD56
331
E64F
  5
10061
331
E3CE
  5
10043
331
DB4A
  5
FD59
331
E65A
  5
10070
331
E3D0
  5
1004B
331
DB2B
  5
FD58
331
E651
  5
10065
331
DB4C
  5
FD6F
331
E3D2
  5
1004D
331
E65C
  5
10123
331
17710
  5
1D897
331
146E4
  5
16DE5
331
E3D4
  5
1004F
331
E65E
  5
101AE
331
E660
  5
101B6
331
E657
  5
10067
331
E0AB
  5
FF2E
331
E662
  5
101B9
331
DBE5
  5
FC75
331
E648
  5
10054
331
E664
  5
101BB
331
E64A
  5
10058
331
E3C9
  5
FFC7
331
E666
  5
101DF
331
E3CB
  5
10040
331
146F7
  5
16DE6
331
E64C
  5
1005E
331
DF94
  5
FEF3
331
DB28
  5
FD30
331
E3CD
  5
10042
331
E3C4
  5
FFB1
331
23DCC
  5
23DCC
331
E659
  5
1006F
331
DB2A
  5
FD57
331
E650
  5
10062
331
E3CF
  5
10047
331
E647
  5
10052
331
E0BE
  5
FF2A
331
DB4B
  5
FD5A
331
E65B
  5
10071
331
E3D1
  5
1004C
331
146D0
  5
16DE4
331
16EE6
  5
1D2C1
  0
XRECORD
  5
24B07
102
{ACAD_REACTORS
330
23DC1
102
}
330
23DC1
100
AcDbXrecord
280
     1
 40
2865043.0
  1
\pxt6,8;COPYRIGHT: Gehele of gedeeltelijke overname, verveelvoudiging op welke wijze dan ook en/of commercieel gebruik van deze informatie is niet toegestaan, tenzij hiervoor uitdrukkelijk schriftelijke toestemming is verleend door DUOFOR B.V.
  0
DICTIONARY
  5
DA54
102
{ACAD_REACTORS
330
DA53
102
}
330
DA53
100
AcDbDictionary
281
     1
  3
ACDB_ANNOTATIONSCALES
350
DA55
  0
DICTIONARY
  5
DBE8
102
{ACAD_REACTORS
330
DBE6
102
}
330
DBE6
100
AcDbDictionary
281
     1
  3
ACDB_ANNOTATIONSCALES
350
DBE9
  0
DICTIONARY
  5
DF96
102
{ACAD_REACTORS
330
DF95
102
}
330
DF95
100
AcDbDictionary
281
     1
  3
ACDB_ANNOTATIONSCALES
350
DF97
  0
DICTIONARY
  5
DFA9
102
{ACAD_REACTORS
330
DFA8
102
}
330
DFA8
100
AcDbDictionary
281
     1
  3
ACDB_ANNOTATIONSCALES
350
DFAA
  0
DICTIONARY
  5
E0AD
102
{ACAD_REACTORS
330
E0AC
102
}
330
E0AC
100
AcDbDictionary
281
     1
  3
ACDB_ANNOTATIONSCALES
350
E0AE
  0
DICTIONARY
  5
E0C0
102
{ACAD_REACTORS
330
E0BF
102
}
330
E0BF
100
AcDbDictionary
281
     1
  3
ACDB_ANNOTATIONSCALES
350
E0C1
  0
DICTIONARY
  5
E18C
102
{ACAD_REACTORS
330
E18A
102
}
330
E18A
100
AcDbDictionary
281
     1
  3
ACDB_ANNOTATIONSCALES
350
E18D
  0
DICTIONARY
  5
E56F
102
{ACAD_REACTORS
330
E56E
102
}
330
E56E
100
AcDbDictionary
281
     1
  3
ACDB_ANNOTATIONSCALES
350
E570
  0
DICTIONARY
  5
E653
102
{ACAD_REACTORS
330
E652
102
}
330
E652
100
AcDbDictionary
281
     1
  3
ACDB_ANNOTATIONSCALES
350
E654
  0
DICTIONARY
  5
146D2
102
{ACAD_REACTORS
330
146D1
102
}
330
146D1
100
AcDbDictionary
281
     1
  3
ACDB_ANNOTATIONSCALES
350
146D3
  0
DICTIONARY
  5
146E6
102
{ACAD_REACTORS
330
146E5
102
}
330
146E5
100
AcDbDictionary
281
     1
  3
ACDB_ANNOTATIONSCALES
350
146E7
  0
DICTIONARY
  5
146F9
102
{ACAD_REACTORS
330
146F8
102
}
330
146F8
100
AcDbDictionary
281
     1
  3
ACDB_ANNOTATIONSCALES
350
146FA
  0
DICTIONARY
  5
16EE8
102
{ACAD_REACTORS
330
16EE7
102
}
330
16EE7
100
AcDbDictionary
281
     1
  3
ACDB_ANNOTATIONSCALES
350
16EE9
  0
DICTIONARY
  5
1705E
102
{ACAD_REACTORS
330
1705C
102
}
330
1705C
100
AcDbDictionary
281
     1
  3
ACDB_ANNOTATIONSCALES
350
1705F
  0
DICTIONARY
  5
176EB
102
{ACAD_REACTORS
330
176EA
102
}
330
176EA
100
AcDbDictionary
281
     1
  3
ACDB_ANNOTATIONSCALES
350
176EC
  0
DICTIONARY
  5
17712
102
{ACAD_REACTORS
330
17711
102
}
330
17711
100
AcDbDictionary
281
     1
  3
ACDB_ANNOTATIONSCALES
350
17713
  0
XRECORD
  5
23FE2
102
{ACAD_REACTORS
330
23FE1
102
}
330
23FE1
100
AcDbXrecord
280
     1
 90
        1
340
10D
  0
XRECORD
  5
23FE6
102
{ACAD_REACTORS
330
23FE5
102
}
330
23FE5
100
AcDbXrecord
280
     1
 90
        1
340
10D
  0
ACDBDETAILVIEWSTYLE
  5
2AD3
102
{ACAD_REACTORS
330
2AD2
102
}
330
2AD2
100
AcDbModelDocViewStyle
 70
     0
  3
Metric50
290
     0
100
AcDbDetailViewStyle
 70
     0
 71
     0
 90
        3
 71
     1
340
11
 62
   256
 40
5.0
340
0
 62
   256
 40
5.0
300

 40
0.0
280
     1
 71
     2
340
16
 90
       25
 62
   256
 71
     3
340
11
 62
   256
 40
5.0
 90
        0
 40
15.0
 90
        1
300
%<\AcVar ViewDetailId>% (%<\AcVar ViewScale \f "%sn">%)
 71
     4
340
16
 90
       25
 62
   256
340
16
 90
       25
 62
   256
280
     0
  0
LAYOUT
  5
23FDA
102
{ACAD_REACTORS
330
1A
102
}
330
1A
100
AcDbPlotSettings
  1

  2
\\NLDFSBS\Brother MFC-8950DW Wit
  4
A4
  6

 40
6.805083274841308
 41
5.027099609375
 42
6.805068969726562
 43
5.027069091796875
 44
209.9733276367187
 45
296.9259948730469
 46
0.0
 47
0.0
 48
0.0
 49
0.0
140
0.0
141
0.0
142
1.0
143
1.0
 70
   688
 72
     1
 73
     1
 74
     5
  7

 75
    16
147
1.0
 76
     0
 77
     2
 78
   300
148
0.0
149
0.0
100
AcDbLayout
  1
Layout1
 70
     1
 71
     1
 10
-5.027069091796875
 20
-6.805083274841308
 11
291.89892578125
 21
203.1682443618775
 12
0.0
 22
0.0
 32
0.0
 14
28.68718261718749
 24
19.6363175392151
 34
0.0
 15
258.1846435546875
 25
176.7268578529358
 35
0.0
146
0.0
 13
0.0
 23
0.0
 33
0.0
 16
1.0
 26
0.0
 36
0.0
 17
0.0
 27
1.0
 37
0.0
 76
     0
330
23FD9
331
23FE0
1001
ACAD_PSEXT
1000
\\NLDFSBS\Brother MFC-8950DW Wit
1000
Brother MFC-8950DW Printer
1000
\\NLDFSBS
1000

1070
     0
  0
LAYOUT
  5
22
102
{ACAD_XDICTIONARY
360
205
102
}
102
{ACAD_REACTORS
330
1A
102
}
330
1A
100
AcDbPlotSettings
  1

  2
none_device
  4
ISO_A4_(210.00_x_297.00_MM)
  6

 40
7.5
 41
20.0
 42
7.5
 43
20.0
 44
210.0
 45
297.0
 46
11.54999923706054
 47
-13.65000009536743
 48
0.0
 49
0.0
140
0.0
141
0.0
142
1.0
143
8.704084754739808
 70
 11952
 72
     1
 73
     0
 74
     0
  7
DUOFOR zwart.ctb
 75
     0
147
0.1148885871608098
 76
     0
 77
     2
 78
   300
148
0.0
149
0.0
100
AcDbLayout
  1
Model
 70
     1
 71
     0
 10
0.0
 20
0.0
 11
12.0
 21
9.0
 12
0.0
 22
0.0
 32
0.0
 14
0.0
 24
0.0
 34
0.0
 15
0.0
 25
0.0
 35
0.0
146
0.0
 13
0.0
 23
0.0
 33
0.0
 16
1.0
 26
0.0
 36
0.0
 17
0.0
 27
1.0
 37
0.0
 76
     0
330
1F
331
EA
1001
ACAD_PSEXT
1000
None
1000
None
1000
Not applicable
1000
The layout will not be plotted unless a new plotter configuration name is selected.
1070
     0
  0
MATERIAL
  5
ED
102
{ACAD_XDICTIONARY
360
1F9
102
}
102
{ACAD_REACTORS
330
6A
102
}
330
6A
100
AcDbMaterial
  1
ByBlock
 94
       63
  0
MATERIAL
  5
EC
102
{ACAD_XDICTIONARY
360
1F7
102
}
102
{ACAD_REACTORS
330
6A
102
}
330
6A
100
AcDbMaterial
  1
ByLayer
 94
       63
  0
MATERIAL
  5
EE
102
{ACAD_XDICTIONARY
360
173
102
}
102
{ACAD_REACTORS
330
6A
102
}
330
6A
100
AcDbMaterial
  1
Global
 43
0.0007999999797903
 43
0.0
 43
0.0
 43
0.0
 43
0.0
 43
0.0007999999797903
 43
0.0
 43
0.0
 43
0.0
 43
0.0
 43
1.0
 43
0.0
 43
0.0
 43
0.0
 43
0.0
 43
1.0
 49
0.0007999999797903
 49
0.0
 49
0.0
 49
0.0
 49
0.0
 49
0.0007999999797903
 49
0.0
 49
0.0
 49
0.0
 49
0.0
 49
1.0
 49
0.0
 49
0.0
 49
0.0
 49
0.0
 49
1.0
142
0.0007999999797903
142
0.0
142
0.0
142
0.0
142
0.0
142
0.0007999999797903
142
0.0
142
0.0
142
0.0
142
0.0
142
1.0
142
0.0
142
0.0
142
0.0
142
0.0
142
1.0
144
0.0007999999797903
144
0.0
144
0.0
144
0.0
144
0.0
144
0.0007999999797903
144
0.0
144
0.0
144
0.0
144
0.0
144
1.0
144
0.0
144
0.0
144
0.0
144
0.0
144
1.0
 94
       63
1001
ACAD
1070
    -1
1070
     3
1070
     0
1000

1071
        0
1070
     0
  0
MLEADERSTYLE
  5
12E
102
{ACAD_REACTORS
330
12D
102
}
330
12D
100
AcDbMLeaderStyle
179
     2
170
     2
171
     1
172
     0
 90
        2
 40
0.0
 41
0.0
173
     1
 91
-1056964608
340
14
 92
       -2
290
     1
 42
2.0
291
     1
 43
8.0
  3
Standard
 44
4.0
300

342
11
174
     1
178
     1
175
     1
176
     0
 93
-1056964608
 45
4.0
292
     0
297
     0
 46
4.0
 94
-1056964608
 47
1.0
 49
1.0
140
1.0
293
     1
141
0.0
294
     1
177
     0
142
1.0
295
     0
296
     0
143
3.75
271
     0
272
     9
273
     9
298
     0
  0
MLINESTYLE
  5
18
102
{ACAD_REACTORS
330
17
102
}
330
17
100
AcDbMlineStyle
  2
STANDARD
 70
     0
  3

 62
   256
 51
90.0
 52
90.0
 71
     2
 49
0.5
 62
   256
  6
BYLAYER
 49
-0.5
 62
   256
  6
BYLAYER
  0
ACDBPLACEHOLDER
  5
F
102
{ACAD_REACTORS
330
E
102
}
330
E
  0
SCALE
  5
10D
102
{ACAD_REACTORS
330
10C
102
}
330
10C
100
AcDbScale
 70
     0
300
1:1
140
1.0
141
1.0
290
     1
  0
SCALE
  5
1BE
102
{ACAD_REACTORS
330
10C
102
}
330
10C
100
AcDbScale
 70
     0
300
1:2
140
1.0
141
2.0
290
     0
  0
SCALE
  5
1A217
102
{ACAD_REACTORS
330
10C
102
}
330
10C
100
AcDbScale
 70
     0
300
1:4
140
1.0
141
4.0
290
     0
  0
SCALE
  5
1C0
102
{ACAD_REACTORS
330
10C
102
}
330
10C
100
AcDbScale
 70
     0
300
1:5
140
1.0
141
5.0
290
     0
  0
SCALE
  5
1A218
102
{ACAD_REACTORS
330
10C
102
}
330
10C
100
AcDbScale
 70
     0
300
1:8
140
1.0
141
8.0
290
     0
  0
SCALE
  5
1C2
102
{ACAD_REACTORS
330
10C
102
}
330
10C
100
AcDbScale
 70
     0
300
1:10
140
1.0
141
10.0
290
     0
  0
SCALE
  5
1C3
102
{ACAD_REACTORS
330
10C
102
}
330
10C
100
AcDbScale
 70
     0
300
1:16
140
1.0
141
16.0
290
     0
  0
SCALE
  5
1C4
102
{ACAD_REACTORS
330
10C
102
}
330
10C
100
AcDbScale
 70
     0
300
1:20
140
1.0
141
20.0
290
     0
  0
SCALE
  5
1A219
102
{ACAD_REACTORS
330
10C
102
}
330
10C
100
AcDbScale
 70
     0
300
1:30
140
1.0
141
30.0
290
     0
  0
SCALE
  5
1A21A
102
{ACAD_REACTORS
330
10C
102
}
330
10C
100
AcDbScale
 70
     0
300
1:40
140
1.0
141
40.0
290
     0
  0
SCALE
  5
1C7
102
{ACAD_REACTORS
330
10C
102
}
330
10C
100
AcDbScale
 70
     0
300
1:50
140
1.0
141
50.0
290
     0
  0
SCALE
  5
1C8
102
{ACAD_REACTORS
330
10C
102
}
330
10C
100
AcDbScale
 70
     0
300
1:100
140
1.0
141
100.0
290
     0
  0
SCALE
  5
1A21B
102
{ACAD_REACTORS
330
10C
102
}
330
10C
100
AcDbScale
 70
     0
300
2:1
140
2.0
141
1.0
290
     0
  0
SCALE
  5
1A21C
102
{ACAD_REACTORS
330
10C
102
}
330
10C
100
AcDbScale
 70
     0
300
4:1
140
4.0
141
1.0
290
     0
  0
SCALE
  5
1A21D
102
{ACAD_REACTORS
330
10C
102
}
330
10C
100
AcDbScale
 70
     0
300
8:1
140
8.0
141
1.0
290
     0
  0
SCALE
  5
1A21E
102
{ACAD_REACTORS
330
10C
102
}
330
10C
100
AcDbScale
 70
     0
300
10:1
140
10.0
141
1.0
290
     0
  0
SCALE
  5
1A21F
102
{ACAD_REACTORS
330
10C
102
}
330
10C
100
AcDbScale
 70
     0
300
100:1
140
100.0
141
1.0
290
     0
  0
ACDBSECTIONVIEWSTYLE
  5
2AD1
102
{ACAD_REACTORS
330
2AD0
102
}
330
2AD0
100
AcDbModelDocViewStyle
 70
     0
  3
Metric50
290
     0
100
AcDbSectionViewStyle
 70
     0
 71
     0
 90
      102
 71
     1
340
11
 62
   256
 40
5.0
340
0
340
0
 62
   256
 40
5.0
300
I, O, Q, S, X, Z
 40
10.0
 90
        0
 40
2.5
 90
        0
 71
     2
340
16
 90
       25
 62
   256
340
16
 90
       50
 62
   256
 40
5.0
 40
2.5
 40
5.0
 71
     3
340
11
 62
   256
 40
5.0
 90
        0
 40
15.0
 90
        1
300
%<\AcVar ViewSectionStartId>%-%<\AcVar ViewSectionEndId>% (%<\AcVar ViewScale \f "%sn">%)
 71
     4
 62
   256
 62
   257
300
ANSI31
 40
1.0
 90
        0
290
     0
290
     0
 90
        6
 40
0.0
 40
1.570796326794896
 40
0.2617993877991494
 40
1.308996938995747
 40
-0.2617993877991494
 40
1.832595714594046
  0
TABLESTYLE
  5
7F
102
{ACAD_XDICTIONARY
360
162
102
}
102
{ACAD_REACTORS
330
7E
102
}
330
7E
100
AcDbTableStyle
280
     0
  3
Standard
 70
     0
 71
     0
 40
1.5
 41
1.5
280
     0
281
     0
  7
Standard
140
4.5
170
     2
 62
     0
 63
     7
283
     0
 90
      512
 91
        0
  1

274
    -2
284
     1
 64
     0
275
    -2
285
     1
 65
     0
276
    -2
286
     1
 66
     0
277
    -2
287
     1
 67
     0
278
    -2
288
     1
 68
     0
279
    -2
289
     1
 69
     0
  7
Standard
140
6.0
170
     5
 62
     0
 63
     7
283
     0
 90
      512
 91
        0
  1

274
    -2
284
     1
 64
     0
275
    -2
285
     1
 65
     0
276
    -2
286
     1
 66
     0
277
    -2
287
     1
 67
     0
278
    -2
288
     1
 68
     0
279
    -2
289
     1
 69
     0
  7
Standard
140
4.5
170
     5
 62
     0
 63
     7
283
     0
 90
      512
 91
        0
  1

274
    -2
284
     1
 64
     0
275
    -2
285
     1
 65
     0
276
    -2
286
     1
 66
     0
277
    -2
287
     1
 67
     0
278
    -2
288
     1
 68
     0
279
    -2
289
     1
 69
     0
  0
VISUALSTYLE
  5
F5
102
{ACAD_REACTORS
330
EF
102
}
330
EF
100
AcDbVisualStyle
  2
2dWireframe
 70
     4
177
     3
291
     0
 70
    58
 90
        0
176
     1
 90
        2
176
     1
 90
        1
176
     1
 90
        0
176
     1
 40
0.6
176
     1
 40
30.0
176
     1
 62
     7
420
 16777215
176
     1
 90
        1
176
     1
 90
        4
176
     1
 62
     7
176
     1
 62
   257
176
     1
 90
        1
176
     1
 90
        1
176
     1
 40
1.0
176
     1
 90
        0
176
     1
 62
   257
176
     1
 40
1.0
176
     1
 90
        1
176
     1
 90
        6
176
     1
 90
        2
176
     1
 62
     7
176
     1
 90
        5
176
     1
 90
        0
176
     1
 90
        0
176
     1
290
     0
176
     1
 90
        1
176
     1
 40
0.0
176
     1
 90
        0
176
     1
290
     1
176
     1
290
     1
176
     1
290
     0
176
     1
290
     0
176
     1
290
     0
176
     1
290
     0
176
     1
290
     0
176
     1
290
     0
176
     1
290
     0
176
     1
 90
       50
176
     1
 40
0.0
176
     1
 40
1.0
176
     1
 90
        0
176
     1
 62
    18
420
        0
176
     1
 90
       50
176
     1
 90
        3
176
     1
 62
     5
420
      255
176
     1
290
     0
176
     1
 90
       50
176
     1
 90
       50
176
     1
 90
       50
176
     1
290
     0
176
     1
 90
       50
176
     1
 62
   256
176
     0
 40
1.0
176
     0
 90
        2
176
     1
  1
strokes_ogs.tif
176
     1
290
     0
176
     1
 40
1.0
176
     1
 40
1.0
176
     1
  0
VISUALSTYLE
  5
F4
102
{ACAD_REACTORS
330
EF
102
}
330
EF
100
AcDbVisualStyle
  2
Basic
 70
     7
177
     3
291
     1
 70
    58
 90
        1
176
     1
 90
        0
176
     1
 90
        1
176
     1
 90
        0
176
     1
 40
0.6
176
     1
 40
30.0
176
     1
 62
     7
420
 16777215
176
     1
 90
        0
176
     1
 90
        4
176
     1
 62
     7
176
     1
 62
   257
176
     1
 90
        1
176
     1
 90
        1
176
     1
 40
1.0
176
     1
 90
        8
176
     1
 62
     7
176
     1
 40
1.0
176
     1
 90
        1
176
     1
 90
        6
176
     1
 90
        2
176
     1
 62
     7
176
     1
 90
        5
176
     1
 90
        0
176
     1
 90
        0
176
     1
290
     0
176
     1
 90
        1
176
     1
 40
0.0
176
     1
 90
        0
176
     1
290
     0
176
     1
290
     1
176
     1
290
     1
176
     1
290
     0
176
     1
290
     0
176
     1
290
     0
176
     1
290
     0
176
     1
290
     0
176
     1
290
     0
176
     1
 90
       50
176
     1
 40
0.0
176
     1
 40
1.0
176
     1
 90
        0
176
     1
 62
    18
420
        0
176
     1
 90
       50
176
     1
 90
        3
176
     1
 62
     5
420
      255
176
     1
290
     0
176
     1
 90
       50
176
     1
 90
       50
176
     1
 90
       50
176
     1
290
     0
176
     1
 90
       50
176
     1
 62
   256
176
     0
 40
1.0
176
     0
 90
        2
176
     1
  1
strokes_ogs.tif
176
     1
290
     0
176
     1
 40
1.0
176
     1
 40
1.0
176
     1
  0
VISUALSTYLE
  5
FB
102
{ACAD_REACTORS
330
EF
102
}
330
EF
100
AcDbVisualStyle
  2
Brighten
 70
    12
177
     3
291
     1
 70
    58
 90
        2
176
     1
 90
        2
176
     1
 90
        1
176
     1
 90
        0
176
     1
 40
0.6
176
     1
 40
30.0
176
     1
 62
     7
420
 16777215
176
     1
 90
        1
176
     1
 90
        4
176
     1
 62
     7
176
     1
 62
   257
176
     1
 90
        1
176
     1
 90
        1
176
     1
 40
1.0
176
     1
 90
        8
176
     1
 62
     7
176
     1
 40
1.0
176
     1
 90
        1
176
     1
 90
        6
176
     1
 90
        2
176
     1
 62
     7
176
     1
 90
        5
176
     1
 90
        0
176
     1
 90
        0
176
     1
290
     0
176
     1
 90
        1
176
     1
 40
50.0
176
     1
 90
        0
176
     1
290
     0
176
     1
290
     1
176
     1
290
     1
176
     1
290
     0
176
     1
290
     0
176
     1
290
     0
176
     1
290
     0
176
     1
290
     0
176
     1
290
     0
176
     1
 90
       50
176
     1
 40
0.0
176
     1
 40
1.0
176
     1
 90
        0
176
     1
 62
    18
420
        0
176
     1
 90
       50
176
     1
 90
        3
176
     1
 62
     5
420
      255
176
     1
290
     0
176
     1
 90
       50
176
     1
 90
       50
176
     1
 90
       50
176
     1
290
     0
176
     1
 90
       50
176
     1
 62
   256
176
     0
 40
1.0
176
     0
 90
        2
176
     1
  1
strokes_ogs.tif
176
     1
290
     0
176
     1
 40
1.0
176
     1
 40
1.0
176
     1
  0
VISUALSTYLE
  5
FF
102
{ACAD_REACTORS
330
EF
102
}
330
EF
100
AcDbVisualStyle
  2
ColorChange
 70
    16
177
     3
291
     1
 70
    58
 90
        2
176
     1
 90
        2
176
     1
 90
        3
176
     1
 90
        0
176
     1
 40
0.6
176
     1
 40
30.0
176
     1
 62
     8
420
  8421504
176
     1
 90
        1
176
     1
 90
        4
176
     1
 62
     7
176
     1
 62
   257
176
     1
 90
        1
176
     1
 90
        1
176
     1
 40
1.0
176
     1
 90
        8
176
     1
 62
     8
420
  8421504
176
     1
 40
1.0
176
     1
 90
        1
176
     1
 90
        6
176
     1
 90
        2
176
     1
 62
     7
176
     1
 90
        5
176
     1
 90
        0
176
     1
 90
        0
176
     1
290
     0
176
     1
 90
        1
176
     1
 40
0.0
176
     1
 90
        0
176
     1
290
     0
176
     1
290
     1
176
     1
290
     1
176
     1
290
     0
176
     1
290
     0
176
     1
290
     0
176
     1
290
     0
176
     1
290
     0
176
     1
290
     0
176
     1
 90
       50
176
     1
 40
0.0
176
     1
 40
1.0
176
     1
 90
        0
176
     1
 62
    18
420
        0
176
     1
 90
       50
176
     1
 90
        3
176
     1
 62
     5
420
      255
176
     1
290
     0
176
     1
 90
       50
176
     1
 90
       50
176
     1
 90
       50
176
     1
290
     0
176
     1
 90
       50
176
     1
 62
   256
176
     0
 40
1.0
176
     0
 90
        2
176
     1
  1
strokes_ogs.tif
176
     1
290
     0
176
     1
 40
1.0
176
     1
 40
1.0
176
     1
  0
VISUALSTYLE
  5
F8
102
{ACAD_REACTORS
330
EF
102
}
330
EF
100
AcDbVisualStyle
  2
Conceptual
 70
     9
177
     3
291
     0
 70
    58
 90
        3
176
     1
 90
        2
176
     1
 90
        1
176
     1
 90
        0
176
     1
 40
0.6
176
     1
 40
30.0
176
     1
 62
     7
420
 16777215
176
     1
 90
        2
176
     1
 90
        2
176
     1
 62
     7
176
     1
 62
   257
176
     1
 90
        1
176
     1
 90
        1
176
     1
 40
40.0
176
     1
 90
        8
176
     1
 62
     7
176
     1
 40
1.0
176
     1
 90
        1
176
     1
 90
        6
176
     1
 90
        2
176
     1
 62
     7
176
     1
 90
        3
176
     1
 90
        0
176
     1
 90
        0
176
     1
290
     0
176
     1
 90
        1
176
     1
 40
0.0
176
     1
 90
        0
176
     1
290
     0
176
     1
290
     1
176
     1
290
     1
176
     1
290
     0
176
     1
290
     0
176
     1
290
     0
176
     1
290
     0
176
     1
290
     0
176
     1
290
     0
176
     1
 90
       50
176
     1
 40
0.0
176
     1
 40
1.0
176
     1
 90
        0
176
     1
 62
    18
420
        0
176
     1
 90
       50
176
     1
 90
        3
176
     1
 62
     5
420
      255
176
     1
290
     0
176
     1
 90
       50
176
     1
 90
       50
176
     1
 90
       50
176
     1
290
     0
176
     1
 90
       50
176
     1
 62
   256
176
     0
 40
1.0
176
     0
 90
        2
176
     1
  1
strokes_ogs.tif
176
     1
290
     0
176
     1
 40
1.0
176
     1
 40
1.0
176
     1
  0
VISUALSTYLE
  5
FA
102
{ACAD_REACTORS
330
EF
102
}
330
EF
100
AcDbVisualStyle
  2
Dim
 70
    11
177
     3
291
     1
 70
    58
 90
        2
176
     1
 90
        2
176
     1
 90
        1
176
     1
 90
        0
176
     1
 40
0.6
176
     1
 40
30.0
176
     1
 62
     7
420
 16777215
176
     1
 90
        1
176
     1
 90
        4
176
     1
 62
     7
176
     1
 62
   257
176
     1
 90
        1
176
     1
 90
        1
176
     1
 40
1.0
176
     1
 90
        8
176
     1
 62
     7
176
     1
 40
1.0
176
     1
 90
        1
176
     1
 90
        6
176
     1
 90
        2
176
     1
 62
     7
176
     1
 90
        5
176
     1
 90
        0
176
     1
 90
        0
176
     1
290
     0
176
     1
 90
        1
176
     1
 40
-50.0
176
     1
 90
        0
176
     1
290
     0
176
     1
290
     1
176
     1
290
     1
176
     1
290
     0
176
     1
290
     0
176
     1
290
     0
176
     1
290
     0
176
     1
290
     0
176
     1
290
     0
176
     1
 90
       50
176
     1
 40
0.0
176
     1
 40
1.0
176
     1
 90
        0
176
     1
 62
    18
420
        0
176
     1
 90
       50
176
     1
 90
        3
176
     1
 62
     5
420
      255
176
     1
290
     0
176
     1
 90
       50
176
     1
 90
       50
176
     1
 90
       50
176
     1
290
     0
176
     1
 90
       50
176
     1
 62
   256
176
     0
 40
1.0
176
     0
 90
        2
176
     1
  1
strokes_ogs.tif
176
     1
290
     0
176
     1
 40
1.0
176
     1
 40
1.0
176
     1
  0
VISUALSTYLE
  5
1E6
102
{ACAD_REACTORS
330
EF
102
}
330
EF
100
AcDbVisualStyle
  2
EdgeColorOff
 70
    22
177
     3
291
     1
 70
    58
 90
        2
176
     0
 90
        2
176
     0
 90
        0
176
     0
 90
        0
176
     0
 40
0.6
176
     0
 40
30.0
176
     0
 62
     7
420
 16777215
176
     0
 90
        1
176
     0
 90
        4
176
     0
 62
     7
176
     0
 62
   257
176
     0
 90
        1
176
     0
 90
        1
176
     0
 40
1.0
176
     0
 90
        8
176
     2
 62
     7
176
     0
 40
1.0
176
     0
 90
        1
176
     0
 90
        6
176
     0
 90
        2
176
     0
 62
     7
176
     0
 90
        5
176
     0
 90
        0
176
     0
 90
        0
176
     0
290
     0
176
     0
 90
        1
176
     0
 40
0.0
176
     0
 90
        0
176
     0
290
     0
176
     1
290
     1
176
     1
290
     1
176
     1
290
     0
176
     1
290
     0
176
     1
290
     0
176
     1
290
     0
176
     1
290
     0
176
     1
290
     0
176
     1
 90
       50
176
     1
 40
0.0
176
     1
 40
1.0
176
     1
 90
        0
176
     1
 62
    18
420
        0
176
     1
 90
       50
176
     1
 90
        3
176
     1
 62
     5
420
      255
176
     1
290
     0
176
     1
 90
       50
176
     1
 90
       50
176
     1
 90
       50
176
     1
290
     0
176
     1
 90
       50
176
     1
 62
   256
176
     0
 40
1.0
176
     0
 90
        2
176
     1
  1
strokes_ogs.tif
176
     1
290
     0
176
     1
 40
1.0
176
     1
 40
1.0
176
     1
  0
VISUALSTYLE
  5
FE
102
{ACAD_REACTORS
330
EF
102
}
330
EF
100
AcDbVisualStyle
  2
Facepattern
 70
    15
177
     3
291
     1
 70
    58
 90
        2
176
     1
 90
        2
176
     1
 90
        1
176
     1
 90
        0
176
     1
 40
0.6
176
     1
 40
30.0
176
     1
 62
     7
420
 16777215
176
     1
 90
        1
176
     1
 90
        4
176
     1
 62
     7
176
     1
 62
   257
176
     1
 90
        1
176
     1
 90
        1
176
     1
 40
1.0
176
     1
 90
        8
176
     1
 62
     7
176
     1
 40
1.0
176
     1
 90
        1
176
     1
 90
        6
176
     1
 90
        2
176
     1
 62
     7
176
     1
 90
        5
176
     1
 90
        0
176
     1
 90
        0
176
     1
290
     0
176
     1
 90
        1
176
     1
 40
0.0
176
     1
 90
        0
176
     1
290
     0
176
     1
290
     1
176
     1
290
     1
176
     1
290
     0
176
     1
290
     0
176
     1
290
     0
176
     1
290
     0
176
     1
290
     0
176
     1
290
     0
176
     1
 90
       50
176
     1
 40
0.0
176
     1
 40
1.0
176
     1
 90
        0
176
     1
 62
    18
420
        0
176
     1
 90
       50
176
     1
 90
        3
176
     1
 62
     5
420
      255
176
     1
290
     0
176
     1
 90
       50
176
     1
 90
       50
176
     1
 90
       50
176
     1
290
     0
176
     1
 90
       50
176
     1
 62
   256
176
     0
 40
1.0
176
     0
 90
        2
176
     1
  1
strokes_ogs.tif
176
     1
290
     0
176
     1
 40
1.0
176
     1
 40
1.0
176
     1
  0
VISUALSTYLE
  5
F0
102
{ACAD_REACTORS
330
EF
102
}
330
EF
100
AcDbVisualStyle
  2
Flat
 70
     0
177
     3
291
     1
 70
    58
 90
        2
176
     1
 90
        1
176
     1
 90
        1
176
     1
 90
        2
176
     1
 40
0.6
176
     1
 40
30.0
176
     1
 62
     7
420
 16777215
176
     1
 90
        0
176
     1
 90
        0
176
     1
 62
     7
176
     1
 62
   257
176
     1
 90
        1
176
     1
 90
        1
176
     1
 40
1.0
176
     1
 90
        8
176
     1
 62
     7
176
     1
 40
1.0
176
     1
 90
        1
176
     1
 90
        6
176
     1
 90
        2
176
     1
 62
     7
176
     1
 90
        5
176
     1
 90
        0
176
     1
 90
        0
176
     1
290
     0
176
     1
 90
       13
176
     1
 40
0.0
176
     1
 90
        0
176
     1
290
     0
176
     1
290
     1
176
     1
290
     1
176
     1
290
     0
176
     1
290
     0
176
     1
290
     0
176
     1
290
     0
176
     1
290
     0
176
     1
290
     0
176
     1
 90
       50
176
     1
 40
0.0
176
     1
 40
1.0
176
     1
 90
        0
176
     1
 62
    18
420
        0
176
     1
 90
       50
176
     1
 90
        3
176
     1
 62
     5
420
      255
176
     1
290
     0
176
     1
 90
       50
176
     1
 90
       50
176
     1
 90
       50
176
     1
290
     0
176
     1
 90
       50
176
     1
 62
   256
176
     0
 40
1.0
176
     0
 90
        2
176
     1
  1
strokes_ogs.tif
176
     1
290
     0
176
     1
 40
1.0
176
     1
 40
1.0
176
     1
  0
VISUALSTYLE
  5
F1
102
{ACAD_REACTORS
330
EF
102
}
330
EF
100
AcDbVisualStyle
  2
FlatWithEdges
 70
     1
177
     3
291
     1
 70
    58
 90
        2
176
     1
 90
        1
176
     1
 90
        1
176
     1
 90
        2
176
     1
 40
0.6
176
     1
 40
30.0
176
     1
 62
     7
420
 16777215
176
     1
 90
        1
176
     1
 90
        0
176
     1
 62
     7
176
     1
 62
   257
176
     1
 90
        1
176
     1
 90
        1
176
     1
 40
1.0
176
     1
 90
        0
176
     1
 62
   257
176
     1
 40
1.0
176
     1
 90
        1
176
     1
 90
        6
176
     1
 90
        2
176
     1
 62
     7
176
     1
 90
        5
176
     1
 90
        0
176
     1
 90
        0
176
     1
290
     0
176
     1
 90
       13
176
     1
 40
0.0
176
     1
 90
        0
176
     1
290
     0
176
     1
290
     1
176
     1
290
     1
176
     1
290
     0
176
     1
290
     0
176
     1
290
     0
176
     1
290
     0
176
     1
290
     0
176
     1
290
     0
176
     1
 90
       50
176
     1
 40
0.0
176
     1
 40
1.0
176
     1
 90
        0
176
     1
 62
    18
420
        0
176
     1
 90
       50
176
     1
 90
        3
176
     1
 62
     5
420
      255
176
     1
290
     0
176
     1
 90
       50
176
     1
 90
       50
176
     1
 90
       50
176
     1
290
     0
176
     1
 90
       50
176
     1
 62
   256
176
     0
 40
1.0
176
     0
 90
        2
176
     1
  1
strokes_ogs.tif
176
     1
290
     0
176
     1
 40
1.0
176
     1
 40
1.0
176
     1
  0
VISUALSTYLE
  5
F2
102
{ACAD_REACTORS
330
EF
102
}
330
EF
100
AcDbVisualStyle
  2
Gouraud
 70
     2
177
     3
291
     1
 70
    58
 90
        2
176
     1
 90
        2
176
     1
 90
        1
176
     1
 90
        2
176
     1
 40
0.6
176
     1
 40
30.0
176
     1
 62
     7
420
 16777215
176
     1
 90
        0
176
     1
 90
        0
176
     1
 62
     7
176
     1
 62
   257
176
     1
 90
        1
176
     1
 90
        1
176
     1
 40
1.0
176
     1
 90
        0
176
     1
 62
     7
176
     1
 40
1.0
176
     1
 90
        1
176
     1
 90
        6
176
     1
 90
        2
176
     1
 62
     7
176
     1
 90
        5
176
     1
 90
        0
176
     1
 90
        0
176
     1
290
     0
176
     1
 90
       13
176
     1
 40
0.0
176
     1
 90
        0
176
     1
290
     0
176
     1
290
     1
176
     1
290
     1
176
     1
290
     0
176
     1
290
     0
176
     1
290
     0
176
     1
290
     0
176
     1
290
     0
176
     1
290
     0
176
     1
 90
       50
176
     1
 40
0.0
176
     1
 40
1.0
176
     1
 90
        0
176
     1
 62
    18
420
        0
176
     1
 90
       50
176
     1
 90
        3
176
     1
 62
     5
420
      255
176
     1
290
     0
176
     1
 90
       50
176
     1
 90
       50
176
     1
 90
       50
176
     1
290
     0
176
     1
 90
       50
176
     1
 62
   256
176
     0
 40
1.0
176
     0
 90
        2
176
     1
  1
strokes_ogs.tif
176
     1
290
     0
176
     1
 40
1.0
176
     1
 40
1.0
176
     1
  0
VISUALSTYLE
  5
F3
102
{ACAD_REACTORS
330
EF
102
}
330
EF
100
AcDbVisualStyle
  2
GouraudWithEdges
 70
     3
177
     3
291
     1
 70
    58
 90
        2
176
     1
 90
        2
176
     1
 90
        1
176
     1
 90
        2
176
     1
 40
0.6
176
     1
 40
30.0
176
     1
 62
     7
420
 16777215
176
     1
 90
        1
176
     1
 90
        0
176
     1
 62
     7
176
     1
 62
   257
176
     1
 90
        1
176
     1
 90
        1
176
     1
 40
1.0
176
     1
 90
        0
176
     1
 62
   257
176
     1
 40
1.0
176
     1
 90
        1
176
     1
 90
        6
176
     1
 90
        2
176
     1
 62
     7
176
     1
 90
        5
176
     1
 90
        0
176
     1
 90
        0
176
     1
290
     0
176
     1
 90
       13
176
     1
 40
0.0
176
     1
 90
        0
176
     1
290
     0
176
     1
290
     1
176
     1
290
     1
176
     1
290
     0
176
     1
290
     0
176
     1
290
     0
176
     1
290
     0
176
     1
290
     0
176
     1
290
     0
176
     1
 90
       50
176
     1
 40
0.0
176
     1
 40
1.0
176
     1
 90
        0
176
     1
 62
    18
420
        0
176
     1
 90
       50
176
     1
 90
        3
176
     1
 62
     5
420
      255
176
     1
290
     0
176
     1
 90
       50
176
     1
 90
       50
176
     1
 90
       50
176
     1
290
     0
176
     1
 90
       50
176
     1
 62
   256
176
     0
 40
1.0
176
     0
 90
        2
176
     1
  1
strokes_ogs.tif
176
     1
290
     0
176
     1
 40
1.0
176
     1
 40
1.0
176
     1
  0
VISUALSTYLE
  5
F7
102
{ACAD_REACTORS
330
EF
102
}
330
EF
100
AcDbVisualStyle
  2
Hidden
 70
     6
177
     3
291
     0
 70
    58
 90
        1
176
     1
 90
        2
176
     1
 90
        2
176
     1
 90
        0
176
     1
 40
0.6
176
     1
 40
30.0
176
     1
 62
     7
420
 16777215
176
     1
 90
        2
176
     1
 90
        2
176
     1
 62
     7
176
     1
 62
   257
176
     1
 90
        2
176
     1
 90
        1
176
     1
 40
40.0
176
     1
 90
        0
176
     1
 62
   257
176
     1
 40
1.0
176
     1
 90
        1
176
     1
 90
        6
176
     1
 90
        2
176
     1
 62
     7
176
     1
 90
        3
176
     1
 90
        0
176
     1
 90
        0
176
     1
290
     0
176
     1
 90
        1
176
     1
 40
0.0
176
     1
 90
        0
176
     1
290
     0
176
     1
290
     1
176
     1
290
     1
176
     1
290
     0
176
     1
290
     0
176
     1
290
     0
176
     1
290
     0
176
     1
290
     0
176
     1
290
     0
176
     1
 90
       50
176
     1
 40
0.0
176
     1
 40
1.0
176
     1
 90
        0
176
     1
 62
    18
420
        0
176
     1
 90
       50
176
     1
 90
        3
176
     1
 62
     5
420
      255
176
     1
290
     0
176
     1
 90
       50
176
     1
 90
       50
176
     1
 90
       50
176
     1
290
     0
176
     1
 90
       50
176
     1
 62
   256
176
     0
 40
1.0
176
     0
 90
        2
176
     1
  1
strokes_ogs.tif
176
     1
290
     0
176
     1
 40
1.0
176
     1
 40
1.0
176
     1
  0
VISUALSTYLE
  5
1E4
102
{ACAD_REACTORS
330
EF
102
}
330
EF
100
AcDbVisualStyle
  2
JitterOff
 70
    20
177
     3
291
     1
 70
    58
 90
        2
176
     0
 90
        2
176
     0
 90
        0
176
     0
 90
        0
176
     0
 40
0.6
176
     0
 40
30.0
176
     0
 62
     7
420
 16777215
176
     0
 90
        1
176
     0
 90
        4
176
     0
 62
     7
176
     0
 62
   257
176
     0
 90
        1
176
     0
 90
        1
176
     0
 40
1.0
176
     0
 90
       10
176
     2
 62
     7
176
     0
 40
1.0
176
     0
 90
        1
176
     0
 90
        6
176
     0
 90
        2
176
     0
 62
     7
176
     0
 90
        5
176
     0
 90
        0
176
     0
 90
        0
176
     0
290
     0
176
     0
 90
        1
176
     0
 40
0.0
176
     0
 90
        0
176
     0
290
     0
176
     1
290
     1
176
     1
290
     1
176
     1
290
     0
176
     1
290
     0
176
     1
290
     0
176
     1
290
     0
176
     1
290
     0
176
     1
290
     0
176
     1
 90
       50
176
     1
 40
0.0
176
     1
 40
1.0
176
     1
 90
        0
176
     1
 62
    18
420
        0
176
     1
 90
       50
176
     1
 90
        3
176
     1
 62
     5
420
      255
176
     1
290
     0
176
     1
 90
       50
176
     1
 90
       50
176
     1
 90
       50
176
     1
290
     0
176
     1
 90
       50
176
     1
 62
   256
176
     0
 40
1.0
176
     0
 90
        2
176
     1
  1
strokes_ogs.tif
176
     1
290
     0
176
     1
 40
1.0
176
     1
 40
1.0
176
     1
  0
VISUALSTYLE
  5
FD
102
{ACAD_REACTORS
330
EF
102
}
330
EF
100
AcDbVisualStyle
  2
Linepattern
 70
    14
177
     3
291
     1
 70
    58
 90
        2
176
     1
 90
        2
176
     1
 90
        1
176
     1
 90
        0
176
     1
 40
0.6
176
     1
 40
30.0
176
     1
 62
     7
420
 16777215
176
     1
 90
        1
176
     1
 90
        4
176
     1
 62
     7
176
     1
 62
   257
176
     1
 90
        7
176
     1
 90
        7
176
     1
 40
1.0
176
     1
 90
        8
176
     1
 62
     7
176
     1
 40
1.0
176
     1
 90
        1
176
     1
 90
        6
176
     1
 90
        2
176
     1
 62
     7
176
     1
 90
        5
176
     1
 90
        0
176
     1
 90
        0
176
     1
290
     0
176
     1
 90
        1
176
     1
 40
0.0
176
     1
 90
        0
176
     1
290
     0
176
     1
290
     1
176
     1
290
     1
176
     1
290
     0
176
     1
290
     0
176
     1
290
     0
176
     1
290
     0
176
     1
290
     0
176
     1
290
     0
176
     1
 90
       50
176
     1
 40
0.0
176
     1
 40
1.0
176
     1
 90
        0
176
     1
 62
    18
420
        0
176
     1
 90
       50
176
     1
 90
        3
176
     1
 62
     5
420
      255
176
     1
290
     0
176
     1
 90
       50
176
     1
 90
       50
176
     1
 90
       50
176
     1
290
     0
176
     1
 90
       50
176
     1
 62
   256
176
     0
 40
1.0
176
     0
 90
        2
176
     1
  1
strokes_ogs.tif
176
     1
290
     0
176
     1
 40
1.0
176
     1
 40
1.0
176
     1
  0
VISUALSTYLE
  5
1E5
102
{ACAD_REACTORS
330
EF
102
}
330
EF
100
AcDbVisualStyle
  2
OverhangOff
 70
    21
177
     3
291
     1
 70
    58
 90
        2
176
     0
 90
        2
176
     0
 90
        0
176
     0
 90
        0
176
     0
 40
0.6
176
     0
 40
30.0
176
     0
 62
     7
420
 16777215
176
     0
 90
        1
176
     0
 90
        4
176
     0
 62
     7
176
     0
 62
   257
176
     0
 90
        1
176
     0
 90
        1
176
     0
 40
1.0
176
     0
 90
        9
176
     2
 62
     7
176
     0
 40
1.0
176
     0
 90
        1
176
     0
 90
        6
176
     0
 90
        2
176
     0
 62
     7
176
     0
 90
        5
176
     0
 90
        0
176
     0
 90
        0
176
     0
290
     0
176
     0
 90
        1
176
     0
 40
0.0
176
     0
 90
        0
176
     0
290
     0
176
     1
290
     1
176
     1
290
     1
176
     1
290
     0
176
     1
290
     0
176
     1
290
     0
176
     1
290
     0
176
     1
290
     0
176
     1
290
     0
176
     1
 90
       50
176
     1
 40
0.0
176
     1
 40
1.0
176
     1
 90
        0
176
     1
 62
    18
420
        0
176
     1
 90
       50
176
     1
 90
        3
176
     1
 62
     5
420
      255
176
     1
290
     0
176
     1
 90
       50
176
     1
 90
       50
176
     1
 90
       50
176
     1
290
     0
176
     1
 90
       50
176
     1
 62
   256
176
     0
 40
1.0
176
     0
 90
        2
176
     1
  1
strokes_ogs.tif
176
     1
290
     0
176
     1
 40
1.0
176
     1
 40
1.0
176
     1
  0
VISUALSTYLE
  5
F9
102
{ACAD_REACTORS
330
EF
102
}
330
EF
100
AcDbVisualStyle
  2
Realistic
 70
     8
177
     3
291
     0
 70
    58
 90
        2
176
     1
 90
        3
176
     1
 90
        0
176
     1
 90
        2
176
     1
 40
0.6
176
     1
 40
30.0
176
     1
 62
     7
420
 16777215
176
     1
 90
        0
176
     1
 90
        0
176
     1
 62
     7
176
     1
 62
   257
176
     1
 90
        1
176
     1
 90
        1
176
     1
 40
1.0
176
     1
 90
        8
176
     1
 62
   257
176
     1
 40
1.0
176
     1
 90
        1
176
     1
 90
        6
176
     1
 90
        2
176
     1
 62
     7
176
     1
 90
        3
176
     1
 90
        0
176
     1
 90
        0
176
     1
290
     0
176
     1
 90
       13
176
     1
 40
0.0
176
     1
 90
        0
176
     1
290
     0
176
     1
290
     1
176
     1
290
     1
176
     1
290
     0
176
     1
290
     0
176
     1
290
     0
176
     1
290
     0
176
     1
290
     0
176
     1
290
     0
176
     1
 90
       50
176
     1
 40
0.0
176
     1
 40
1.0
176
     1
 90
        0
176
     1
 62
    18
420
        0
176
     1
 90
       50
176
     1
 90
        3
176
     1
 62
     5
420
      255
176
     1
290
     0
176
     1
 90
       50
176
     1
 90
       50
176
     1
 90
       50
176
     1
290
     0
176
     1
 90
       50
176
     1
 62
   256
176
     0
 40
1.0
176
     0
 90
        2
176
     1
  1
strokes_ogs.tif
176
     1
290
     0
176
     1
 40
1.0
176
     1
 40
1.0
176
     1
  0
VISUALSTYLE
  5
1F3
102
{ACAD_REACTORS
330
EF
102
}
330
EF
100
AcDbVisualStyle
  2
Shaded
 70
    27
177
     3
291
     0
 70
    58
 90
        2
176
     1
 90
        2
176
     1
 90
        1
176
     1
 90
        2
176
     1
 40
0.6
176
     1
 40
30.0
176
     1
 62
     7
420
 16777215
176
     1
 90
        0
176
     1
 90
        4
176
     1
 62
     7
176
     1
 62
   257
176
     1
 90
        1
176
     1
 90
        1
176
     1
 40
1.0
176
     1
 90
        8
176
     1
 62
   257
176
     1
 40
1.0
176
     1
 90
        1
176
     1
 90
        6
176
     1
 90
        2
176
     1
 62
     8
420
  7895160
176
     1
 90
        3
176
     1
 90
        0
176
     1
 90
        0
176
     1
290
     0
176
     1
 90
        5
176
     1
 40
0.0
176
     1
 90
        0
176
     1
290
     0
176
     1
290
     1
176
     1
290
     1
176
     1
290
     0
176
     1
290
     0
176
     1
290
     0
176
     1
290
     0
176
     1
290
     0
176
     1
290
     0
176
     1
 90
       50
176
     1
 40
0.0
176
     1
 40
1.0
176
     1
 90
        0
176
     1
 62
    18
420
        0
176
     1
 90
       50
176
     1
 90
        3
176
     1
 62
     5
420
      255
176
     1
290
     0
176
     1
 90
       50
176
     1
 90
       50
176
     1
 90
       50
176
     1
290
     0
176
     1
 90
       50
176
     1
 62
   256
176
     0
 40
1.0
176
     0
 90
        2
176
     1
  1
strokes_ogs.tif
176
     1
290
     0
176
     1
 40
1.0
176
     1
 40
1.0
176
     1
  0
VISUALSTYLE
  5
1F2
102
{ACAD_REACTORS
330
EF
102
}
330
EF
100
AcDbVisualStyle
  2
Shaded with edges
 70
    26
177
     3
291
     0
 70
    58
 90
        2
176
     1
 90
        2
176
     1
 90
        1
176
     1
 90
        2
176
     1
 40
0.6
176
     1
 40
30.0
176
     1
 62
     7
420
 16777215
176
     1
 90
        1
176
     1
 90
       10
176
     1
 62
     7
176
     1
 62
   257
176
     1
 90
        2
176
     1
 90
        1
176
     1
 40
1.0
176
     1
 90
        8
176
     1
 62
   257
176
     1
 40
1.0
176
     1
 90
        1
176
     1
 90
        6
176
     1
 90
        2
176
     1
 62
     7
176
     1
 90
        3
176
     1
 90
        0
176
     1
 90
        0
176
     1
290
     0
176
     1
 90
        5
176
     1
 40
0.0
176
     1
 90
        0
176
     1
290
     0
176
     1
290
     1
176
     1
290
     1
176
     1
290
     0
176
     1
290
     0
176
     1
290
     0
176
     1
290
     0
176
     1
290
     0
176
     1
290
     0
176
     1
 90
       50
176
     1
 40
0.0
176
     1
 40
1.0
176
     1
 90
        0
176
     1
 62
    18
420
        0
176
     1
 90
       50
176
     1
 90
        3
176
     1
 62
     5
420
      255
176
     1
290
     0
176
     1
 90
       50
176
     1
 90
       50
176
     1
 90
       50
176
     1
290
     0
176
     1
 90
       50
176
     1
 62
   256
176
     0
 40
1.0
176
     0
 90
        2
176
     1
  1
strokes_ogs.tif
176
     1
290
     0
176
     1
 40
1.0
176
     1
 40
1.0
176
     1
  0
VISUALSTYLE
  5
1EF
102
{ACAD_REACTORS
330
EF
102
}
330
EF
100
AcDbVisualStyle
  2
Shades of Gray
 70
    23
177
     3
291
     0
 70
    58
 90
        2
176
     1
 90
        2
176
     1
 90
        3
176
     1
 90
        0
176
     1
 40
0.6
176
     1
 40
30.0
176
     1
 62
     7
420
 16777215
176
     1
 90
        2
176
     1
 90
        2
176
     1
 62
     7
176
     1
 62
     7
176
     1
 90
        1
176
     1
 90
        1
176
     1
 40
40.0
176
     1
 90
        8
176
     1
 62
     7
176
     1
 40
1.0
176
     1
 90
        1
176
     1
 90
        6
176
     1
 90
        2
176
     1
 62
     7
176
     1
 90
        3
176
     1
 90
        0
176
     1
 90
        0
176
     1
290
     0
176
     1
 90
        1
176
     1
 40
0.0
176
     1
 90
        0
176
     1
290
     0
176
     1
290
     1
176
     1
290
     1
176
     1
290
     0
176
     1
290
     0
176
     1
290
     0
176
     1
290
     0
176
     1
290
     0
176
     1
290
     0
176
     1
 90
       50
176
     1
 40
0.0
176
     1
 40
1.0
176
     1
 90
        0
176
     1
 62
    18
420
        0
176
     1
 90
       50
176
     1
 90
        3
176
     1
 62
     5
420
      255
176
     1
290
     0
176
     1
 90
       50
176
     1
 90
       50
176
     1
 90
       50
176
     1
290
     0
176
     1
 90
       50
176
     1
 62
   256
176
     0
 40
1.0
176
     0
 90
        2
176
     1
  1
strokes_ogs.tif
176
     1
290
     0
176
     1
 40
1.0
176
     1
 40
1.0
176
     1
  0
VISUALSTYLE
  5
1F0
102
{ACAD_REACTORS
330
EF
102
}
330
EF
100
AcDbVisualStyle
  2
Sketchy
 70
    24
177
     3
291
     0
 70
    58
 90
        1
176
     1
 90
        2
176
     1
 90
        2
176
     1
 90
        0
176
     1
 40
0.6
176
     1
 40
30.0
176
     1
 62
     7
420
 16777215
176
     1
 90
        2
176
     1
 90
        2
176
     1
 62
     7
176
     1
 62
     7
176
     1
 90
        1
176
     1
 90
        1
176
     1
 40
40.0
176
     1
 90
       11
176
     1
 62
     7
176
     1
 40
1.0
176
     1
 90
        1
176
     1
 90
        6
176
     1
 90
        2
176
     1
 62
     7
176
     1
 90
        6
176
     1
 90
        0
176
     1
 90
        0
176
     1
290
     0
176
     1
 90
        1
176
     1
 40
0.0
176
     1
 90
        0
176
     1
290
     0
176
     1
290
     1
176
     1
290
     1
176
     1
290
     0
176
     1
290
     0
176
     1
290
     0
176
     1
290
     0
176
     1
290
     0
176
     1
290
     0
176
     1
 90
       50
176
     1
 40
0.0
176
     1
 40
1.0
176
     1
 90
        0
176
     1
 62
    18
420
        0
176
     1
 90
       50
176
     1
 90
        3
176
     1
 62
     5
420
      255
176
     1
290
     0
176
     1
 90
       50
176
     1
 90
       50
176
     1
 90
       50
176
     1
290
     0
176
     1
 90
       50
176
     1
 62
   256
176
     0
 40
1.0
176
     0
 90
        2
176
     1
  1
strokes_ogs.tif
176
     1
290
     0
176
     1
 40
1.0
176
     1
 40
1.0
176
     1
  0
VISUALSTYLE
  5
FC
102
{ACAD_REACTORS
330
EF
102
}
330
EF
100
AcDbVisualStyle
  2
Thicken
 70
    13
177
     3
291
     1
 70
    58
 90
        2
176
     1
 90
        2
176
     1
 90
        1
176
     1
 90
        0
176
     1
 40
0.6
176
     1
 40
30.0
176
     1
 62
     7
420
 16777215
176
     1
 90
        1
176
     1
 90
        4
176
     1
 62
     7
176
     1
 62
   257
176
     1
 90
        1
176
     1
 90
        1
176
     1
 40
1.0
176
     1
 90
       12
176
     1
 62
     7
176
     1
 40
1.0
176
     1
 90
        1
176
     1
 90
        6
176
     1
 90
        2
176
     1
 62
     7
176
     1
 90
        5
176
     1
 90
        0
176
     1
 90
        0
176
     1
290
     0
176
     1
 90
        1
176
     1
 40
0.0
176
     1
 90
        0
176
     1
290
     0
176
     1
290
     1
176
     1
290
     1
176
     1
290
     0
176
     1
290
     0
176
     1
290
     0
176
     1
290
     0
176
     1
290
     0
176
     1
290
     0
176
     1
 90
       50
176
     1
 40
0.0
176
     1
 40
1.0
176
     1
 90
        0
176
     1
 62
    18
420
        0
176
     1
 90
       50
176
     1
 90
        3
176
     1
 62
     5
420
      255
176
     1
290
     0
176
     1
 90
       50
176
     1
 90
       50
176
     1
 90
       50
176
     1
290
     0
176
     1
 90
       50
176
     1
 62
   256
176
     0
 40
1.0
176
     0
 90
        2
176
     1
  1
strokes_ogs.tif
176
     1
290
     0
176
     1
 40
1.0
176
     1
 40
1.0
176
     1
  0
VISUALSTYLE
  5
F6
102
{ACAD_REACTORS
330
EF
102
}
330
EF
100
AcDbVisualStyle
  2
Wireframe
 70
     5
177
     3
291
     0
 70
    58
 90
        0
176
     1
 90
        2
176
     1
 90
        0
176
     1
 90
        0
176
     1
 40
0.6
176
     1
 40
30.0
176
     1
 62
     7
420
 16777215
176
     1
 90
        1
176
     1
 90
        4
176
     1
 62
     7
176
     1
 62
   257
176
     1
 90
        1
176
     1
 90
        1
176
     1
 40
1.0
176
     1
 90
        0
176
     1
 62
   257
176
     1
 40
1.0
176
     1
 90
        1
176
     1
 90
        6
176
     1
 90
        2
176
     1
 62
     7
176
     1
 90
        3
176
     1
 90
        0
176
     1
 90
        0
176
     1
290
     0
176
     1
 90
        1
176
     1
 40
0.0
176
     1
 90
        0
176
     1
290
     0
176
     1
290
     1
176
     1
290
     1
176
     1
290
     0
176
     1
290
     0
176
     1
290
     0
176
     1
290
     0
176
     1
290
     0
176
     1
290
     0
176
     1
 90
       50
176
     1
 40
0.0
176
     1
 40
1.0
176
     1
 90
        0
176
     1
 62
    18
420
        0
176
     1
 90
       50
176
     1
 90
        3
176
     1
 62
     5
420
      255
176
     1
290
     0
176
     1
 90
       50
176
     1
 90
       50
176
     1
 90
       50
176
     1
290
     0
176
     1
 90
       50
176
     1
 62
   256
176
     0
 40
1.0
176
     0
 90
        2
176
     1
  1
strokes_ogs.tif
176
     1
290
     0
176
     1
 40
1.0
176
     1
 40
1.0
176
     1
  0
VISUALSTYLE
  5
1F1
102
{ACAD_REACTORS
330
EF
102
}
330
EF
100
AcDbVisualStyle
  2
X-Ray
 70
    25
177
     3
291
     0
 70
    58
 90
        2
176
     1
 90
        2
176
     1
 90
        1
176
     1
 90
        1
176
     1
 40
0.5
176
     1
 40
30.0
176
     1
 62
     7
420
 16777215
176
     1
 90
        1
176
     1
 90
        0
176
     1
 62
     7
176
     1
 62
   257
176
     1
 90
        1
176
     1
 90
        1
176
     1
 40
1.0
176
     1
 90
        8
176
     1
 62
     7
176
     1
 40
1.0
176
     1
 90
        1
176
     1
 90
        6
176
     1
 90
        2
176
     1
 62
     7
176
     1
 90
        3
176
     1
 90
        0
176
     1
 90
        0
176
     1
290
     0
176
     1
 90
       13
176
     1
 40
0.0
176
     1
 90
        0
176
     1
290
     0
176
     1
290
     1
176
     1
290
     1
176
     1
290
     0
176
     1
290
     0
176
     1
290
     0
176
     1
290
     0
176
     1
290
     0
176
     1
290
     0
176
     1
 90
       50
176
     1
 40
0.0
176
     1
 40
1.0
176
     1
 90
        0
176
     1
 62
    18
420
        0
176
     1
 90
       50
176
     1
 90
        3
176
     1
 62
     5
420
      255
176
     1
290
     0
176
     1
 90
       50
176
     1
 90
       50
176
     1
 90
       50
176
     1
290
     0
176
     1
 90
       50
176
     1
 62
   256
176
     0
 40
1.0
176
     0
 90
        2
176
     1
  1
strokes_ogs.tif
176
     1
290
     0
176
     1
 40
1.0
176
     1
 40
1.0
176
     1
  0
DICTIONARYVAR
  5
4B84
102
{ACAD_REACTORS
330
5E
102
}
330
5E
100
DictionaryVariables
280
     0
  1
1
  0
DICTIONARYVAR
  5
146
102
{ACAD_REACTORS
330
5E
102
}
330
5E
100
DictionaryVariables
280
     0
  1
1:1
  0
DICTIONARYVAR
  5
145
102
{ACAD_REACTORS
330
5E
102
}
330
5E
100
DictionaryVariables
280
     0
  1
STANDARD
  0
DICTIONARYVAR
  5
84
102
{ACAD_REACTORS
330
5E
102
}
330
5E
100
DictionaryVariables
280
     0
  1
STANDARD
  0
DICTIONARYVAR
  5
3363
102
{ACAD_REACTORS
330
5E
102
}
330
5E
100
DictionaryVariables
280
     0
  1
Metric50
  0
DICTIONARYVAR
  5
3364
102
{ACAD_REACTORS
330
5E
102
}
330
5E
100
DictionaryVariables
280
     0
  1
Metric50
  0
DICTIONARYVAR
  5
5F
102
{ACAD_REACTORS
330
5E
102
}
330
5E
100
DictionaryVariables
280
     0
  1
2
  0
DICTIONARYVAR
  5
1EE2
102
{ACAD_REACTORS
330
5E
102
}
330
5E
100
DictionaryVariables
280
     0
  1
2
  0
DICTIONARYVAR
  5
63
102
{ACAD_REACTORS
330
5E
102
}
330
5E
100
DictionaryVariables
280
     0
  1
1
  0
DICTIONARYVAR
  5
8208
102
{ACAD_REACTORS
330
5E
102
}
330
5E
100
DictionaryVariables
280
     0
  1
Arcering
  0
DICTIONARYVAR
  5
8209
102
{ACAD_REACTORS
330
5E
102
}
330
5E
100
DictionaryVariables
280
     0
  1
ByLayer
  0
DICTIONARYVAR
  5
1AE
102
{ACAD_REACTORS
330
5E
102
}
330
5E
100
DictionaryVariables
280
     0
  1
0
  0
DICTIONARYVAR
  5
1AF
102
{ACAD_REACTORS
330
5E
102
}
330
5E
100
DictionaryVariables
280
     0
  1
0
  0
XRECORD
  5
6727
102
{ACAD_REACTORS
330
6726
102
}
330
6726
100
AcDbXrecord
280
     1
 40
0.0
  0
ACDBVIEWREPSTANDARD
  5
67B5
102
{ACAD_REACTORS
330
67B4
102
}
330
67B4
100
AcDbViewRepStandard
 90
      100
 90
        0
 90
        1
 90
        1
 90
        1
 90
        1
  0
DICTIONARY
  5
DA55
102
{ACAD_REACTORS
330
DA54
102
}
330
DA54
100
AcDbDictionary
281
     1
  3
*A1
350
DA56
  0
DICTIONARY
  5
DBE9
102
{ACAD_REACTORS
330
DBE8
102
}
330
DBE8
100
AcDbDictionary
281
     1
  3
*A1
350
DBEA
  0
DICTIONARY
  5
DF97
102
{ACAD_REACTORS
330
DF96
102
}
330
DF96
100
AcDbDictionary
281
     1
  3
*A1
350
DF98
  0
DICTIONARY
  5
DFAA
102
{ACAD_REACTORS
330
DFA9
102
}
330
DFA9
100
AcDbDictionary
281
     1
  3
*A1
350
DFAB
  0
DICTIONARY
  5
E0AE
102
{ACAD_REACTORS
330
E0AD
102
}
330
E0AD
100
AcDbDictionary
281
     1
  3
*A1
350
E0AF
  0
DICTIONARY
  5
E0C1
102
{ACAD_REACTORS
330
E0C0
102
}
330
E0C0
100
AcDbDictionary
281
     1
  3
*A1
350
E0C2
  0
DICTIONARY
  5
E18D
102
{ACAD_REACTORS
330
E18C
102
}
330
E18C
100
AcDbDictionary
281
     1
  3
*A1
350
E18E
  0
DICTIONARY
  5
E570
102
{ACAD_REACTORS
330
E56F
102
}
330
E56F
100
AcDbDictionary
281
     1
  3
*A1
350
E61E
  0
DICTIONARY
  5
E654
102
{ACAD_REACTORS
330
E653
102
}
330
E653
100
AcDbDictionary
281
     1
  3
*A1
350
E655
  0
DICTIONARY
  5
146D3
102
{ACAD_REACTORS
330
146D2
102
}
330
146D2
100
AcDbDictionary
281
     1
  3
*A1
350
146D4
  0
DICTIONARY
  5
146E7
102
{ACAD_REACTORS
330
146E6
102
}
330
146E6
100
AcDbDictionary
281
     1
  3
*A1
350
146E8
  0
DICTIONARY
  5
146FA
102
{ACAD_REACTORS
330
146F9
102
}
330
146F9
100
AcDbDictionary
281
     1
  3
*A1
350
146FB
  0
DICTIONARY
  5
16EE9
102
{ACAD_REACTORS
330
16EE8
102
}
330
16EE8
100
AcDbDictionary
281
     1
  3
*A1
350
16EEA
  0
DICTIONARY
  5
1705F
102
{ACAD_REACTORS
330
1705E
102
}
330
1705E
100
AcDbDictionary
281
     1
  3
*A1
350
17060
  0
DICTIONARY
  5
176EC
102
{ACAD_REACTORS
330
176EB
102
}
330
176EB
100
AcDbDictionary
281
     1
  3
*A1
350
176ED
  0
DICTIONARY
  5
17713
102
{ACAD_REACTORS
330
17712
102
}
330
17712
100
AcDbDictionary
281
     1
  3
*A1
350
17714
  0
DICTIONARY
  5
205
330
22
100
AcDbDictionary
280
     1
281
     1
  3
AcPublish_PlotSettingsOverride
360
1EE1
  0
DICTIONARY
  5
1F9
330
ED
100
AcDbDictionary
280
     1
281
     1
  3
FBXASSET
360
1FA
  0
DICTIONARY
  5
1F7
330
EC
100
AcDbDictionary
280
     1
281
     1
  3
FBXASSET
360
1F8
  0
DICTIONARY
  5
173
330
EE
100
AcDbDictionary
280
     1
281
     1
  3
BUMPTILE
360
175
  3
DIFFUSETILE
360
174
  3
FBXASSET
360
1FB
  3
OPACITYTILE
360
176
  3
REFLECTIONTILE
360
177
  0
DICTIONARY
  5
162
330
7F
100
AcDbDictionary
280
     1
281
     1
  3
ACAD_ROUNDTRIP_2008_TABLESTYLE_CELLSTYLEMAP
360
24B06
  0
ACDB_ALDIMOBJECTCONTEXTDATA_CLASS
  5
DA56
102
{ACAD_REACTORS
330
DA55
102
}
330
DA55
100
AcDbObjectContextData
 70
     4
290
     1
100
AcDbAnnotScaleObjectContextData
340
10D
100
AcDbDimensionObjectContextData
  2
*D2
293
     0
 10
16223.79047350207
 20
6959.346649453862
294
     0
140
0.0
298
     0
291
     0
 70
     0
292
     0
 71
     0
280
     0
295
     0
296
     0
297
     0
100
AcDbAlignedDimensionObjectContextData
 11
16223.79047350207
 21
6946.846649453859
 31
0.0
  0
ACDB_ALDIMOBJECTCONTEXTDATA_CLASS
  5
DBEA
102
{ACAD_REACTORS
330
DBE9
102
}
330
DBE9
100
AcDbObjectContextData
 70
     4
290
     1
100
AcDbAnnotScaleObjectContextData
340
10D
100
AcDbDimensionObjectContextData
  2
*D3
293
     0
 10
17365.52724756567
 20
6701.79203740466
294
     0
140
0.0
298
     0
291
     0
 70
     0
292
     0
 71
     0
280
     0
295
     0
296
     0
297
     0
100
AcDbAlignedDimensionObjectContextData
 11
18375.12869383948
 21
6701.79203740466
 31
0.0
  0
ACDB_ALDIMOBJECTCONTEXTDATA_CLASS
  5
DF98
102
{ACAD_REACTORS
330
DF97
102
}
330
DF97
100
AcDbObjectContextData
 70
     4
290
     1
100
AcDbAnnotScaleObjectContextData
340
10D
100
AcDbDimensionObjectContextData
  2
*D4
293
     0
 10
16154.0245245732
 20
6701.792037404658
294
     1
140
0.0
298
     0
291
     0
 70
     0
292
     0
 71
     0
280
     0
295
     0
296
     0
297
     0
100
AcDbAlignedDimensionObjectContextData
 11
16191.50109392641
 21
6701.792037404658
 31
0.0
  0
ACDB_ALDIMOBJECTCONTEXTDATA_CLASS
  5
DFAB
102
{ACAD_REACTORS
330
DFAA
102
}
330
DFAA
100
AcDbObjectContextData
 70
     4
290
     1
100
AcDbAnnotScaleObjectContextData
340
10D
100
AcDbDimensionObjectContextData
  2
*D5
293
     0
 10
16261.39964712755
 20
6866.846649453862
294
     1
140
0.0
298
     0
291
     0
 70
     0
292
     0
 71
     0
280
     0
295
     0
296
     0
297
     0
100
AcDbAlignedDimensionObjectContextData
 11
16261.39964712755
 21
6761.846649453859
 31
0.0
  0
ACDB_ALDIMOBJECTCONTEXTDATA_CLASS
  5
E0AF
102
{ACAD_REACTORS
330
E0AE
102
}
330
E0AE
100
AcDbObjectContextData
 70
     4
290
     1
100
AcDbAnnotScaleObjectContextData
340
10D
100
AcDbDimensionObjectContextData
  2
*D6
293
     0
 10
16071.21902791894
 20
6868.428615838529
294
     0
140
0.0
298
     0
291
     0
 70
     0
292
     0
 71
     1
280
    16
295
     0
296
     0
297
     0
100
AcDbAlignedDimensionObjectContextData
 11
16086.72908186271
 21
6801.846649453858
 31
0.0
  0
ACDB_ALDIMOBJECTCONTEXTDATA_CLASS
  5
E0C2
102
{ACAD_REACTORS
330
E0C1
102
}
330
E0C1
100
AcDbObjectContextData
 70
     4
290
     1
100
AcDbAnnotScaleObjectContextData
340
10D
100
AcDbDimensionObjectContextData
  2
*D7
293
     0
 10
16064.01762210827
 20
6782.088726183278
294
     0
140
0.0
298
     0
291
     0
 70
     0
292
     0
 71
     1
280
    16
295
     0
296
     0
297
     0
100
AcDbAlignedDimensionObjectContextData
 11
16086.72908186271
 21
6761.846649453859
 31
0.0
  0
ACDB_ALDIMOBJECTCONTEXTDATA_CLASS
  5
E18E
102
{ACAD_REACTORS
330
E18D
102
}
330
E18D
100
AcDbObjectContextData
 70
     4
290
     1
100
AcDbAnnotScaleObjectContextData
340
10D
100
AcDbDimensionObjectContextData
  2
*D8
293
     0
 10
16064.01762210827
 20
6952.091252920161
294
     0
140
0.0
298
     0
291
     0
 70
     0
292
     0
 71
     1
280
    16
295
     0
296
     0
297
     0
100
AcDbAlignedDimensionObjectContextData
 11
16086.72908186271
 21
6932.072462379945
 31
0.0
  0
ACDB_ALDIMOBJECTCONTEXTDATA_CLASS
  5
E61E
102
{ACAD_REACTORS
330
E570
102
}
330
E570
100
AcDbObjectContextData
 70
     4
290
     1
100
AcDbAnnotScaleObjectContextData
340
10D
100
AcDbDimensionObjectContextData
  2
*D11
293
     0
 10
16187.83294931522
 20
6991.846649453862
294
     1
140
0.0
298
     0
291
     0
 70
     0
292
     0
 71
     0
280
     0
295
     0
296
     0
297
     0
100
AcDbAlignedDimensionObjectContextData
 11
16154.00109392641
 21
6971.846649453858
 31
0.0
  0
ACDB_ALDIMOBJECTCONTEXTDATA_CLASS
  5
E655
102
{ACAD_REACTORS
330
E654
102
}
330
E654
100
AcDbObjectContextData
 70
     4
290
     1
100
AcDbAnnotScaleObjectContextData
340
10D
100
AcDbDimensionObjectContextData
  2
*D12
293
     0
 10
17347.12220284782
 20
6663.521345929942
294
     0
140
0.0
298
     0
291
     0
 70
     0
292
     0
 71
     0
280
     0
295
     0
296
     0
297
     0
100
AcDbAlignedDimensionObjectContextData
 11
16360.50691056741
 21
6663.521345929942
 31
0.0
  0
ACDB_ALDIMOBJECTCONTEXTDATA_CLASS
  5
146D4
102
{ACAD_REACTORS
330
146D3
102
}
330
146D3
100
AcDbObjectContextData
 70
     4
290
     1
100
AcDbAnnotScaleObjectContextData
340
10D
100
AcDbDimensionObjectContextData
  2
*D13
293
     0
 10
17858.91044520226
 20
6875.616101739698
294
     0
140
0.0
298
     0
291
     0
 70
     0
292
     0
 71
     0
280
     0
295
     0
296
     0
297
     0
100
AcDbAlignedDimensionObjectContextData
 11
17858.91044520226
 21
6907.608375147214
 31
0.0
  0
ACDB_ALDIMOBJECTCONTEXTDATA_CLASS
  5
146E8
102
{ACAD_REACTORS
330
146E7
102
}
330
146E7
100
AcDbObjectContextData
 70
     4
290
     1
100
AcDbAnnotScaleObjectContextData
340
10D
100
AcDbDimensionObjectContextData
  2
*D14
293
     0
 10
17858.76974709197
 20
7005.357617429858
294
     0
140
0.0
298
     0
291
     0
 70
     0
292
     0
 71
     0
280
     0
295
     0
296
     0
297
     0
100
AcDbAlignedDimensionObjectContextData
 11
17908.7696156592
 21
7005.357617429858
 31
0.0
  0
ACDB_ALDIMOBJECTCONTEXTDATA_CLASS
  5
146FB
102
{ACAD_REACTORS
330
146FA
102
}
330
146FA
100
AcDbObjectContextData
 70
     4
290
     1
100
AcDbAnnotScaleObjectContextData
340
10D
100
AcDbDimensionObjectContextData
  2
*D15
293
     0
 10
18358.47679131191
 20
6882.814101882466
294
     0
140
0.0
298
     0
291
     0
 70
     0
292
     0
 71
     0
280
     0
295
     0
296
     0
297
     0
100
AcDbAlignedDimensionObjectContextData
 11
18331.39890221765
 21
6889.885169694332
 31
0.0
  0
ACDB_ALDIMOBJECTCONTEXTDATA_CLASS
  5
16EEA
102
{ACAD_REACTORS
330
16EE9
102
}
330
16EE9
100
AcDbObjectContextData
 70
     4
290
     1
100
AcDbAnnotScaleObjectContextData
340
10D
100
AcDbDimensionObjectContextData
  2
*D16
293
     0
 10
16167.25109392641
 20
6740.532607237445
294
     0
140
0.0
298
     0
291
     0
 70
     0
292
     0
 71
     0
280
     0
295
     0
296
     0
297
     0
100
AcDbAlignedDimensionObjectContextData
 11
16189.75109392641
 21
6740.532607237445
 31
0.0
  0
ACDB_ALDIMOBJECTCONTEXTDATA_CLASS
  5
17060
102
{ACAD_REACTORS
330
1705F
102
}
330
1705F
100
AcDbObjectContextData
 70
     4
290
     1
100
AcDbAnnotScaleObjectContextData
340
10D
100
AcDbDimensionObjectContextData
  2
*D17
293
     0
 10
16186.8043979959
 20
6842.754512571213
294
     0
140
0.0
298
     0
291
     0
 70
     0
292
     0
 71
     2
280
    16
295
     0
296
     0
297
     0
100
AcDbAlignedDimensionObjectContextData
 11
16181.50109392641
 21
6817.388421372503
 31
0.0
1001
ACAD
1000
DSTYLE
1002
{
1070
   279
1070
     2
1002
}
  0
ACDB_ALDIMOBJECTCONTEXTDATA_CLASS
  5
176ED
102
{ACAD_REACTORS
330
176EC
102
}
330
176EC
100
AcDbObjectContextData
 70
     4
290
     1
100
AcDbAnnotScaleObjectContextData
340
10D
100
AcDbDimensionObjectContextData
  2
*D18
293
     0
 10
17769.68207081224
 20
6909.248028236085
294
     0
140
0.0
298
     0
291
     0
 70
     0
292
     0
 71
     2
280
    16
295
     0
296
     0
297
     0
100
AcDbAlignedDimensionObjectContextData
 11
17788.95963522476
 21
6907.607958233147
 31
0.0
1001
ACAD
1000
DSTYLE
1002
{
1070
   279
1070
     2
1002
}
  0
ACDB_ALDIMOBJECTCONTEXTDATA_CLASS
  5
17714
102
{ACAD_REACTORS
330
17713
102
}
330
17713
100
AcDbObjectContextData
 70
     4
290
     1
100
AcDbAnnotScaleObjectContextData
340
10D
100
AcDbDimensionObjectContextData
  2
*D19
293
     0
 10
17764.1790154419
 20
6830.854411968177
294
     0
140
0.0
298
     0
291
     0
 70
     0
292
     0
 71
     1
280
    16
295
     0
296
     0
297
     0
100
AcDbAlignedDimensionObjectContextData
 11
17788.95963522476
 21
6817.084732472856
 31
0.0
  0
PLOTSETTINGS
  5
1EE1
102
{ACAD_REACTORS
330
205
102
}
330
205
100
AcDbPlotSettings
  1

  2
none_device
  4
ANSI_A_(8.50_x_11.00_Inches)
  6

 40
7.5
 41
20.0
 42
7.5
 43
20.0
 44
210.0
 45
297.0
 46
11.54999923706054
 47
-13.65000009536743
 48
-6498.015071005728
 49
-2421.968051514996
140
3005.982512870272
141
7948.683498096166
142
1.0
143
48.73844914808205
 70
 11952
 72
     1
 73
     0
 74
     4
  7

 75
     0
147
0.0205176819837189
 76
     0
 77
     2
 78
   300
148
6498.015071005728
149
2421.968051514996
1001
ACAD_PSEXT
1000
None
1000
None
1000
Not applicable
1000
The layout will not be plotted unless a new plotter configuration name is selected.
1070
     0
  0
XRECORD
  5
1FA
102
{ACAD_REACTORS
330
1F9
102
}
330
1F9
100
AcDbXrecord
280
     1
 70
     1
 90
429727718
  1
D62C5603-E3A1-4AEA-B7FB-FE5D8D0755AF
310
504B03040A0000080000CC70623B3DEE336E79000000790000001B0000006175746F6465736B2D64657369676E2D7061636B6167652E786D6C3C3F786D6C2076657273696F6E3D22312E302220656E636F64696E673D227574662D3822203F3E3C666F726D6174733E3C666F726D61743E687474703A2F2F736368656D612E
310
6175746F6465736B2E636F6D2F64657369676E2D7061636B6167652F323030393C2F666F726D61743E3C2F666F726D6174733E504B0304140006080800CC70623BD486FD9CA0000000F4000000130000005B436F6E74656E745F54797065735D2E786D6C7D8EC10E82300C865F65E91D8A1E8C310C0EEA1BF002731658846E
310
D98AC1B77784ABF1D8FE5FBFBF75BBCE937A534CCEB38643598122B6FEE978D0B0485F9C41B54DDD7D022595594E1A469170414C76A4D9A4D207E29CF43ECE46F218070CC6BECC4078ACAA135ACF422C856C0E68EA1BF5669944DDD7BCDE7B1F8E415D77AECB980613C2E4AC91FC167A2B244592486606FC29C8FD7F045B9A
310
EF7053A7E60B504B0304140006080800CC70623B853B8169EB0000007C01000008000000636F72652E786D6C8D90416EC3201045AF62CDB6C206821CC7C244919D9CA01740401C94182C03558F5F9C3852BBEB6A467FFE9B197D7EFC9E1EC5975982F5AE035262288C535E5B377690E21535501C055FBC8FBF6C503839990E
310
5619041F179FE64D52DE45E362569DD7661365082642A11EB9E920A89B99642953CC8E702F67A9EE7234257977194EC9EAE275C4EABCCF5EAD5940D4AC6F0E35A568B8F43562CD7046CD199FD07E60174276A7BE677B5EADB0E0D14EEFFB6A31321A0D82627C4084204C3F096B71DD52F6819B16635EADF63F509AF53FA164
310
5DDCD1EDDD17164090FCC8732078B56691CB33A85CD7DCC40F504B0304140006080800CC70623B55019EA25F0000007C00000007000000636E782E786D6C4DCB3B0E80201045D1AD90E915ED2CF8AC45050C11660C8261F98AB1B07AC9C97D42D718D865D3E909258CFD00CCE24AC6E326A164D74DC0B4128928FF32603847
310
2BA13128B1252AC747C6BAB984FC68F0B87FE8960A5C09FE86CFB69FBA01504B0304140006080800CC70623BDBABAAF470010000D40300000C0000006662782F636F72652E786D6CC553D16E823014FD95A6AF4B694182CC941A83FA05FB810A9511A125A5257EFE2E82712ECEB8A7F100CD39F7F69E734AF9FADC366850B6
310
AF8DCE7018308C942E4C59EB2AC3DE1D498AD15A706B8CFB56869196ADCAF00863C12B6B7C374385D14E6907A836A59A41D9F7CA615434B0C8705F7CAA5606D23BA8E84F41278B93AC54100640439DE0BDB320004D43C63716C7C399D30917DCFBBA9CD9BA8469F5B156168B24CED3F7248AC8769F27244EB73B92EED8862C
310
B7F13E0C179B3C8F979C8ECD82BBBABDAA2BAC924E9558448CBD9330242CFA08E3154B5651FCC6D215639C8EE5774DBE2B5F6CF2B5768B68963BB5F5588420E442FC700B1139D4CB01F450C1E918227C2E09DF070D8140C84E1E9AAB8F1340832A9CB13130A5F1376A908D57309505ECF2A0DF179C4E9D30F5B239B87E3823
310
7A79C6F31DE1A8A5AEC08474B03C7837EAE4938639B44E5932B833D2C6B6B279CDC613877FA26EE21F4A2A4C63EC7F29A2F301D1F9F7A0E37D145F504B0304140006080800CC70623B9C113CC27E0000009D0000000B0000006662782F636E782E786D6C4DCCDF0A83201C86E15B91DFB94BFB330DD428C8FB886521330DA7
310
6397BF1A1DECE883878F57749FCDA1B7892F1BBC047A23808C7F84D9FA55424E0BE6803A256208E9EF06C84F9B91703228B1C690F78B66B34CD9A5439DF5CF0BFBF65E35BCA1B8D6A5C6F540381E886698B5741C695F9503EBA150A2F8958E3DC3EA0B504B0304140006080800CC70623B7DF2F77C2A010000120200003100
310
00006662782F41393633353835312D344632462D344230382D423046372D3739314545314133324237412F636F72652E786D6C8D51DB8EC22014FC15C2939B0D2DB4B45643319AE817EC0F6041255A68B86CFCFC856D4D76DF7CE190393373060EDB3DC707F856CE6B6B7A480A0C81328395DA5C7B18C3057510EC3873D686
310
3F34088C18550F330C39BB3A1BA7051AAC09CA84841A2BD5020AEF55806078A44B0FFD7053A328440C89E1EFC52486BBB8AA8214A99D789CF9E05200300FC927E4FB4D5B375D43103D5527440FB843077C5AA3F5861C8F645F5787F59E95B390B318B55CE45AA638FAA2957BD7248B390B7A7CC51F9C124149C82B8C378810
310
84AB2F42B7B8DD56F413775B8C5999E9FF4471926F8AA236A1AE96B8B3CC434E5839373893369E1FAF30EA395917409EB7F26AF8801C171837A4A6AC9C89E9F9C9B1A58BA30FD6A5EF5DDDCF894B9AD9B6A59C957943A9FCAE2FD5BC4DFE03504B0304140006080800CC70623BAD7543B64E01000033030000300000006662
310
782F41393633353835312D344632462D344230382D423046372D3739314545314133324237412F636E782E786D6CD593CD6EC32010845F0571AD6CE3D48AD20813A9873E410FBD12D82434182C7EAAE6EDBB2424CD25871E7B41D6EC30B3FA84F9E67BB2E40B4234DE8DB46F1925E094D7C6ED479AD3AE5951B2113C789FEE
310
6C943839C1488B4C05DF079FE72A69D8C96C13AAD6B8631503449F83828872B949AC57D26200B826A308D316B4064D6E46FCDA41C05550DC9E483A00797BFD207EFB092A45DE9514C1BBD22178396BD39D891265658C238DEA00936C654E5E433CB65A26D9F6EDB5EBC14EBF49A45CB856E66048291F6939A9A81BB5C89177
310
38143CA680F4AA299D66A042CEB3354A2684DC9D8D178FE0D9B8B41CAAD720F880EE7EF93C0C18769E099ECC04D5A102C8049A8A05632F4DDF376CF1DE0F6BB65C2F8627B65A33C6BB62177CEBBDAD973006829F89F22E814B54F4BC2BE347F8AA8F681390B50FA73F804400B5F542E796F19FF974E7F78DB802FE05E20750
310
4B0304140006080800CC70623BE75B7789680500003C100000340000006662782F41393633353835312D344632462D344230382D423046372D3739314545314133324237412F6F626A656374732E786D6CAD575B8F9B3818FD2B887D06C22499CB8AA1CA655245D5B455A356FB305264C061D8018C6C3393D95FBFC7600890
310
A4CD5EF210B0B1BFEBF98E3F7B1FF6596ABC522E1296DF9BAE3D320D9A872C4AF2F8DE2CE5CEBA358D0FBEC719939D65A691938CDE9B6ADAF4BD98B3B2D05311DD91329583D9D5FC0F438434A7A611A644887B5384CF34233629258BA878B12322891DEFF6B66BD70BFB62634E8AE781D082709A4B588AF91C528CDA28B73F
310
1C998EEF39EABBEFA97FBD6A7C7E9553F9D3D79FE442923C3C523610337627CB87ABE99D359D4CC6D6E4FACAB5E6ABF9D2726FC6A3C5F56271377BB88362213924694B38DD99FE47C48627A1E7D49F5A8BB5E1A74C0A599ED3B0F21F1E56366B89112D681E218F0915D0D6F17AD41FBA2A369DCF6335D62ABBD39779D5DDD1
310
11D4D8DE3CBB96B2E04FB8202E41051754A1AA8E8F76B4C6DFE810B580B1547F4B84911149794252234D024EF8BBE963A95AE27B3D310A9D5C215C7960FAEE415ED75694C6AFB17BCACA5D99A60A9AA65F217B0BFC53292ACB92BF283FAD0D3621576592CB5BED907C2FA8E9DF794E35E97BEA31BED21FEB401ABB94C44839
310
DCACBF0E1C5DA8DA5B2F4DFFD32AD86F543D9E565E7056502E157C00AD2671CD534549AB752FCA9CDA00677A313F04E51B22FF19E57B300579E3C97EB29F682D92935CEC18CF901B7B54FD8C51F362B56FC72FE0B3C1EAE335EDCCBF5AEC39ADB17DC238973F804BA5E6F6BFE7AF1FB32E523BE9F3BD571418E3631DCA4D48
310
5250CF639223210A9446CA30052EDF057BD35F8329C1ECD84552BF0DC8D18BE7BCE23BFE6BD960AB4A7DE79923A103BEBD80F911CBAA2C60DB19B01CF164A5583B772EE6D3FFA56666CBCDA74DC97724A48F9A58967497E489C4D979006FD7A05E227A1EBDD0F737C623387A9C844D3709995625106D157315F8B8392CD4E0
310
A0B9A720C4BE9829CEF37EA1E13111214D53925356365ADA634861B52519DD27A00AEB808EAF0628E6F435519D446F45CF2C9CF5214F0A15B2F6D06B79DA3EE3CBF7F56780D2F4E7EF73A0F5E5B02A38D07DC852C6B7C1FBB6664213E0C39E3EBA7FF4E1AD23EA2829407C85E586727488B751B2DB9502BC7B228A3FD68B6E
310
A65A22397E690AA8D158D7E404EC8CDA235CC3B7D1898680131CEC2CDF2638C65196279577750F15884AEE19F94199155B92B13297978469D4F8D358DF0AEF7631E28DC8F0D9F437D5D39A83B2231A1D52D543813A824EF8D44BCFF2FA6A31BD1E8DAD87F1CCB526B3879935BF59CDADD5C37479BB1CDD4CA7B3556B516589
310
EF352754B706114D9C885EC9131DE6EFEB43D99AFE2391C2F958179413D7CFEF6B1B6DB1E7600F00DE6E5C67454A339A4BA2E0FBA85ED26F045D454F463DBFCE484C2F90F2E5E3666003662ED8F755951A7D1BECD5B30B550B2785C8E7320B7292A4838DDA71BBC863ED7613CAF659337A3354231D4FF4A182A54904C2898C
310
98B28C4AD0CE056CCF332A80986E571EE9DBC305BB5FEB7E509220A58D25CF042D712A806AC0AD0C657FDEF80D2D9CEAA2EE4D1C76F60BFE74219A06527D6F82DF6412526107381E55E353090704D085B52408A8913C4ED159D79BDA71BB4BC506F4831350EB6F975CD22D69BF7AC49B91A2C0A9DDA3D5CA36AD20FC478E37
310
E61844E2352865EBCB61A275A65283CAAA9DD27703B4102F5AF51EF5F573B75CBB5AD38BC845F7A49F82A0966A49C2E3EA5EA0ECD326CD965F1DB402C6FA8B51A4658C5C5E2EC9E214602E55810345408596591009A82E7E7FFACA19EEA299B14A0081A705CB3296EBC14CDF658DCD336EA6D1136881AAEB87B81AB9EE53D5
310
F5EB8BC8362082DA24122F98680A4E7930C01A0079749CEA14382A0783E5EBA5A10F8C098456A03D6A4AEB6BB881E2513747552A5DB22C7EDAF83BD5528081A365F7FF06504B0304140006080000CC70623B000000000000000000000000350000006662782F41393633353835312D344632462D344230382D423046372D37
310
39314545314133324237412F76657274696365732E62696E504B0304140006080800CC70623BF270F1330600000004000000360000006662782F41393633353835312D344632462D344230382D423046372D3739314545314133324237412F747269616E676C65732E62696E636660600000504B0304140006080000CC7062
310
3B000000000000000000000000370000006662782F41393633353835312D344632462D344230382D423046372D3739314545314133324237412F617474726962757465732E62696E504B0304140006080800CC70623B08DA0BD19000000041010000360000006662782F41393633353835312D344632462D344230382D4230
310
46372D3739314545314133324237412F6469726563746F72792E786D6C858F410AC3201045AF22B36F53E9A60B35CBEEBAE80D244E44489C6234F4F835464A48035D0DF398FF9F8AF63D0E6CC63039F212F8F9020C7D47C6792B21C5FE7403D62A1188E2E60C98D7234A5830286103A55745067B9D86B8A3CF9C7F90C11DE6
310
07FB144396D7B6A82D282E9A152AD114D5EF2CB866EEE831B8EEA07A7BB5A8D7D61A2BAAEB7FD5F70921FF497D00504B0304140006080800CC70623BEDD1DC58FD000000A00100003B0000006662782F41393633353835312D344632462D344230382D423046372D3739314545314133324237412F7265736F75726365732F
310
636F72652E786D6C8D504B6E833010BD0A9A6D65B00922041947112427E8052C33A156828DFCA97AFC9A40A576D7CDCCE87D344F8F9FBFE667F689CE6B6B3A6039850C8DB2A336530731DC4903D95970676DF82583CCC8193B5861107C72362E3BA4AC096842428D1D7107A5F7182053CF7474E0D507CE32973124857FE48B
310
540F3961CEF244279DE03EB81420DB9EAC1384436FA353E879B1B182C7A8C75DA3C7F453DF353A1075D537A7BA6464B8F535A99AE14A9A2BBD90E350DD183B5CFABE3AF262350B1EF4FC9351399401471025A527C218A1E53BAB5A5AB765F5469B96525EACF23FA6B88CFF34456DC2A1DCE36E360F82A5202F42F062ED2BAD
310
579969AFDD8A6F504B010214000A0000080000CC70623B3DEE336E79000000790000001B00000000000000000000000000000000006175746F6465736B2D64657369676E2D7061636B6167652E786D6C504B01021400140006080800CC70623BD486FD9CA0000000F40000001300000000000000000000000000B20000005B
310
436F6E74656E745F54797065735D2E786D6C504B01021400140006080800CC70623B853B8169EB0000007C010000080000000000000000000000000083010000636F72652E786D6C504B01021400140006080800CC70623B55019EA25F0000007C000000070000000000000000000000000094020000636E782E786D6C504B
310
01021400140006080800CC70623BDBABAAF470010000D40300000C00000000000000000000000000180300006662782F636F72652E786D6C504B01021400140006080800CC70623B9C113CC27E0000009D0000000B00000000000000000000000000B20400006662782F636E782E786D6C504B01021400140006080800CC70
310
623B7DF2F77C2A010000120200003100000000000000000000000000590500006662782F41393633353835312D344632462D344230382D423046372D3739314545314133324237412F636F72652E786D6C504B01021400140006080800CC70623BAD7543B64E010000330300003000000000000000000000000000D2060000
310
6662782F41393633353835312D344632462D344230382D423046372D3739314545314133324237412F636E782E786D6C504B01021400140006080800CC70623BE75B7789680500003C10000034000000000000000000000000006E0800006662782F41393633353835312D344632462D344230382D423046372D3739314545
310
314133324237412F6F626A656374732E786D6C504B01021400140006080000CC70623B0000000000000000000000003500000000000000000000000000280E00006662782F41393633353835312D344632462D344230382D423046372D3739314545314133324237412F76657274696365732E62696E504B01021400140006
310
080800CC70623BF270F133060000000400000036000000000000000000000000007B0E00006662782F41393633353835312D344632462D344230382D423046372D3739314545314133324237412F747269616E676C65732E62696E504B01021400140006080000CC70623B0000000000000000000000003700000000000000
310
000000000000D50E00006662782F41393633353835312D344632462D344230382D423046372D3739314545314133324237412F617474726962757465732E62696E504B01021400140006080800CC70623B08DA0BD1900000004101000036000000000000000000000000002A0F00006662782F41393633353835312D344632
310
462D344230382D423046372D3739314545314133324237412F6469726563746F72792E786D6C504B01021400140006080800CC70623BEDD1DC58FD000000A00100003B000000000000000000000000000E1000006662782F41393633353835312D344632462D344230382D423046372D3739314545314133324237412F7265
310
736F75726365732F636F72652E786D6C504B0506000000000E000E0080040000641100000000
  0
XRECORD
  5
1F8
102
{ACAD_REACTORS
330
1F7
102
}
330
1F7
100
AcDbXrecord
280
     1
 70
     1
 90
429727718
  1
30362254-06B7-45E0-A893-8CFA70E3D6BC
310
504B03040A0000080000CC70623B3DEE336E79000000790000001B0000006175746F6465736B2D64657369676E2D7061636B6167652E786D6C3C3F786D6C2076657273696F6E3D22312E302220656E636F64696E673D227574662D3822203F3E3C666F726D6174733E3C666F726D61743E687474703A2F2F736368656D612E
310
6175746F6465736B2E636F6D2F64657369676E2D7061636B6167652F323030393C2F666F726D61743E3C2F666F726D6174733E504B0304140006080800CC70623BD486FD9CA0000000F4000000130000005B436F6E74656E745F54797065735D2E786D6C7D8EC10E82300C865F65E91D8A1E8C310C0EEA1BF002731658846E
310
D98AC1B77784ABF1D8FE5FBFBF75BBCE937A534CCEB38643598122B6FEE978D0B0485F9C41B54DDD7D022595594E1A469170414C76A4D9A4D207E29CF43ECE46F218070CC6BECC4078ACAA135ACF422C856C0E68EA1BF5669944DDD7BCDE7B1F8E415D77AECB980613C2E4AC91FC167A2B244592486606FC29C8FD7F045B9A
310
EF7053A7E60B504B0304140006080800CC70623B1EC5D7A3EB0000007C01000008000000636F72652E786D6C8D90416EC3201045AF82665B6103C6756C6122AB4D4ED00B204C5C94182C03558F5F9C3852BBEB6A467FFE9B197D71FC9E6FE8CBACC17AD7032D0820E3B41FAD9B7A48F1820F808E52ACDEC75F36404ECDA687
310
4D0629A6D5A76597B477D1B89855E747B38B2A041301E95B6E7A08FAD3CCAA50296647B8168BD2573599823EBB0CA76447F43862C7BCCF5EAC59410E4DDD9C7973C2755553CCCFA4C603E3040F1565ED3B1FDE4E432BCA0D9622DAF9795FAF464533826484B498524CD807E51D79ED187F21878E10516EF63F505AC67F42C9
310
BA58B1FDDD071640D2FCC87D2045B96591CB3DA85CB7DCE40F504B0304140006080800CC70623B55019EA25F0000007C00000007000000636E782E786D6C4DCB3B0E80201045D1AD90E915ED2CF8AC45050C11660C8261F98AB1B07AC9C97D42D718D865D3E909258CFD00CCE24AC6E326A164D74DC0B4128928FF32603847
310
2BA13128B1252AC747C6BAB984FC68F0B87FE8960A5C09FE86CFB69FBA01504B0304140006080800CC70623B8C9102E971010000D40300000C0000006662782F636F72652E786D6CC5535B6E833010BC8AE5DF0A6C08340F1947A84D4ED00B38C6A128602363A31CBFCB234A53A551FA553EC09AD9F5CE8C31DB9E9B1AF5CA
310
7695D1198E428A91D2D214952E33ECDD315861B4E5CC1AE3BE9561A445A3323CC098B3D21ADFCE9034DA29ED00D5A6503328BA4E398C640D8B0C77F253352214DE4145770A5B214FA2546114020D759C75CE8200340D19DE981F0F6746269C33EFAB6266AB02A655C74A59CCF365BADC27CB5D902ED22848F6340DF238A141
310
BE88E2F57B92BFEDF23523433367AE6A2EEAA455C2A902F398D2751045018D3FA264435F3771F242571B4A1919CA6F9A7C5B3CD9E42BED16F12C776AEB308F40C848FC700B1139D4891EF410CEC810227CC6846F8386402064270EF5C5C709A05E49676C024C61FC95EA45ED154CA5211D1FF4FB8291A913A68E9B83EBBB33
310
E2A7673CDE118E5AE8124C0807CB8377834E366998436B950D7A7746DAD846D4CFD978E0F04FD455FC5D49D2D4C6FE9722321F10997F0F32DC47FE05504B0304140006080800CC70623BFFEA85907E0000009D0000000B0000006662782F636E782E786D6C4DCCD10A83201886E15B91FFDC95D95A811AB6F23E625948A6C3
310
E9D8E5AF46073BFAE0E1E365ED67B3E8ADC3CB78C7815C7240DA3DFC64DCC221C519D7805AC182F7F1EF06C88D9BE6703008B6049F9E274D7A1E938DBB5AE3D6131B2589BA0D3D965551E0B2EA732C9B9A624AAEB41E3A557677029960D9AFB4EF11165F504B0304140006080800CC70623B4FEEA4082C0100001202000031
310
0000006662782F39464131463745442D413632322D343644302D413938332D3331353338454246344243312F636F72652E786D6C8D515B6EC32010BC0AE2AB55850DD871ED0813254D72825EC00192A2C460F1A872FC42ED48ED5F7E00CDCECCCEB26C731F6FE05B39AFADE921293004CA082BB5B9F43086336A21D870E6AC
310
0D7F68109861543DCC30E4ECE26C9C164858139409093556AA051CBC570102714B8F1E7AF1A5C6A11862480C7F2DA6415C878B2A4891CA89C7990F2E050073937C42DE1DB7E4F87ED8A36D4329AA9B3D46DBAEAD504556557BD81DEBDD0761E52CE42C462D17B996298E3E6BE59E35C962CE821E1FF18553435012728A7187
310
0841987E927A8D9B35ADDF70BBC6989599FE4F1427F9A4286A132ABAC49D651EF234CD5CE04CDA78BA3DC2A8FB645D00B9DF8B57E215725C60BCA2A463E54C4CE327C7A65E1C7DB02E7DEFCBF594B864C5CA6CDBD49C957943E9FA5D5FBAF336F90F504B0304140006080800CC70623BAD7543B64E01000033030000300000
310
006662782F39464131463745442D413632322D343644302D413938332D3331353338454246344243312F636E782E786D6CD593CD6EC32010845F0571AD6CE3D48AD20813A9873E410FBD12D82434182C7EAAE6EDBB2424CD25871E7B41D6EC30B3FA84F9E67BB2E40B4234DE8DB46F1925E094D7C6ED479AD3AE5951B2113C
310
789FEE6C943839C1488B4C05DF079FE72A69D8C96C13AAD6B8631503449F83828872B949AC57D26200B826A308D316B4064D6E46FCDA41C05550DC9E483A00797BFD207EFB092A45DE9514C1BBD22178396BD39D891265658C238DEA00936C654E5E433CB65A26D9F6EDB5EBC14EBF49A45CB856E66048291F6939A9A81BB5
310
C8917738143CA680F4AA299D66A042CEB3354A2684DC9D8D178FE0D9B8B41CAAD720F880EE7EF93C0C18769E099ECC04D5A102C8049A8A05632F4DDF376CF1DE0F6BB65C2F8627B65A33C6BB62177CEBBDAD973006829F89F22E814B54F4BC2BE347F8AA8F681390B50FA73F804400B5F542E796F19FF974E7F78DB802FE05
310
E207504B0304140006080800CC70623B16AB87BA640500003C100000340000006662782F39464131463745442D413632322D343644302D413938332D3331353338454246344243312F6F626A656374732E786D6CAD575B6FA33818FD2B887DE6924B3BED8A326A92B68A663B534DD4D13E548A0C38942D60649B369D5FBFC7
310
600890A493BDE42160637FD7F31D7FF63E6FB3D478A55C242CBF3247B66B1A340F5994E4F19559CA8D75611A9F7D8F33263BCB4C232719BD32D5B4E97B316765A1A722BA21652A07B3B7B33F0D11D29C9A46981221AE4C113ED38CD8A4942CA2E2C58E882476BCD9DA23BB5ED8171B73523C0F841684D35CC252CCE79062D4
310
468DFA43D7747CCF51DF7D4FFDEB5593E3AB9CCA9FBEFE241792E4E19EB28198C968BAB8199F5D5A67D3E9C49A9E8F47D6EC76B6B0469F26EEFC7C3EBFBCBEB98462213924694B38DD98FE1D62C393D073EA4FADC5DAF04326852CCF6958F90F0F2B9BB5C48816348F90C7840A68EB78EDF68723159BCEE7891A6B95DDE9D3
310
BCEAEEE8086A6C6F9E5D4B59F0175C10A7A0820BAA5055C7473B5AE3CFDD452D602CD5DF12616444529E90D448938013FE6EFA58AA96F85E4F8C42275708571E98FE6827AF6B2B4AE3D7D83D64E5A64C53054DD3AF90BD06FEA9149565C94FCA0F6B834DC85599E4F2423B24DF0B6AFA979E534DFA9E7A4CC6FA631D486393
310
921829879BF5D781A373557BCB85E97FB90DB62B558F8795179C15944B051F40AB495CF35451D26A4727654E6D8033BD98EF82F21D91FF8AF2DD9982BCF1643BDD4EB516C9492E368C67C88DED563FC36D5EACF66DFF057C3658BDBFA69DF9578B3DA735B64F18C7F20770A9D45CFCF7FCF563D6456A277DBEF78A02637CA2
310
43B90A490AEAB94F72244481D24819A6C0E59B606BFA4B3025981DBB48EAB701D97BF19C577CC77F2D1B6C55A9EF3C732474C0B727303F625995056C3B02963D9EAC146BE78EC5FCEC7FA999EBC5EACBAAE41B12D27B4D2C0BBA49F244E2ECDC81B76B502F113D8F5EE8FB1BE3111CDD4FC2AA9B844CAB1288B68AB90A7CDC
310
1C166AB0D3DC5310625FCC14E779BFD0709F8890A629C9292B1B2DED31A4B0DA928CEE135085754027E3018A397D4D5427D15BD1330B677DC8934285AC3DF45A9EB68FF8F2B8FC0A509AFEECFD0FF2DE25CC6047F7214B195F07EFEB9A094D800F7BFAE8FED187B78EA8A3A400F115961BCAD1215E47C966530AF0EE8128FE
310
58CEBB996A8964FFA529A046635D9353B0336A8F700DDF46271A024E70B0B37C9DE01847591E54DED53D54202AB947E4076556AC49C6CA5C9E1226B7F1A7B1BE15DEED62C41B91E1B3E9AFAAA735036547343A925075041DF0A9979E893B391F8FCFA6967B3EFB644DCF6E5CEBFAE272625DCC6FAF3FB93793C5F90CE1EF57
310
407342756B10D1C489E8953CD1617E5CEECAD6F4EF8914CE5D5D504E5C3F1F9736DA62CFC11E00BCDDB8CC8A9466349744C1F75EBDA4DF09BA8A9E8C7A7E9991989E20E5DBDD6A6003664ED8F7A04A8DBE0DF6EAD9B9AA858342E47399053949D2C146EDB85DE4B176BB0965FBAC19BD19AA918E27FA50C1D22402E144464C
310
59462568E704B6E71915404CB72B8FF4EDE184DDAF753F284990D2C6926782963815403548A70C657FDEF80D2D9CEAA2AE4C1C76F60BFE74219A06527D6582DF6412526107381E55E353090704D085B52408D0933C4ED159D79BDA71BB4BC506F4831350EB6F979CD22D69BF7AC49B91A2C0A9DDA3D5CA36AD20FC478E37E6
310
1844E2352865EBCB6EA275A652E3836BE04EFB400BF1A2556F515F1FBB35B2AB35BD889C744FFA1004B5544B121E57F70215746DD2F5E2C1412B602CBF19455AC6C8E5E9922C4E01E65215385004546899059180EAFCF7A707CE7017CD8CDB0410789AB32C63B91E5CEBBBACB17AC6CD347A022D5075FD106377347AAABA7E
310
7D11590744509B44E205134DC1290F06580320F78E537D3D73540E06CB970B431F185308AD40BBD794D6D77003C5A36E8EAA54BA64597CD8F83BD552A080A365F7FF06504B0304140006080000CC70623B000000000000000000000000350000006662782F39464131463745442D413632322D343644302D413938332D3331
310
353338454246344243312F76657274696365732E62696E504B0304140006080800CC70623BF270F1330600000004000000360000006662782F39464131463745442D413632322D343644302D413938332D3331353338454246344243312F747269616E676C65732E62696E636660600000504B0304140006080000CC70623B
310
000000000000000000000000370000006662782F39464131463745442D413632322D343644302D413938332D3331353338454246344243312F617474726962757465732E62696E504B0304140006080800CC70623B08DA0BD19000000041010000360000006662782F39464131463745442D413632322D343644302D413938
310
332D3331353338454246344243312F6469726563746F72792E786D6C858F410AC3201045AF22B36F53E9A60B35CBEEBAE80D244E44489C6234F4F835464A48035D0DF398FF9F8AF63D0E6CC63039F212F8F9020C7D47C6792B21C5FE7403D62A1188E2E60C98D7234A5830286103A55745067B9D86B8A3CF9C7F90C11DE607
310
FB144396D7B6A82D282E9A152AD114D5EF2CB866EEE831B8EEA07A7BB5A8D7D61A2BAAEB7FD5F70921FF497D00504B0304140006080800CC70623B0D6EF93BFE000000A00100003B0000006662782F39464131463745442D413632322D343644302D413938332D3331353338454246344243312F7265736F75726365732F63
310
6F72652E786D6C8D50596E833010BD0A9ADFCA60B334011947A8694ED00B586642AC041B79A97AFC9A40A5F6AF3F33A3B7689E1E3F7DCD8FEC139DD7D6F4C0720A191A65476DA61E62B892236427C19DB5E1970C322367EC618541F0C9D9B8EC90B226A009093576C41D94DE63804C3DD2D18357379C652E63480A7FCF17A9
310
EE72C29CE5894E3AC17D702940B63D59270887DE46A7D0F36263058F518FBB468FE9A7BE6A7420864373B8D4873369AA8691FA421B3294352543C5CAF65C0F6FEF43CB8BD52C78D0F34F46E550061C419494B6843142CB0F5677F4B52BEB177AEC28E5C52AFF638ACBF84F53D42654E51E77B379102C05791282176B5F693D
310
CB4C7BED567C03504B010214000A0000080000CC70623B3DEE336E79000000790000001B00000000000000000000000000000000006175746F6465736B2D64657369676E2D7061636B6167652E786D6C504B01021400140006080800CC70623BD486FD9CA0000000F40000001300000000000000000000000000B20000005B
310
436F6E74656E745F54797065735D2E786D6C504B01021400140006080800CC70623B1EC5D7A3EB0000007C010000080000000000000000000000000083010000636F72652E786D6C504B01021400140006080800CC70623B55019EA25F0000007C000000070000000000000000000000000094020000636E782E786D6C504B
310
01021400140006080800CC70623B8C9102E971010000D40300000C00000000000000000000000000180300006662782F636F72652E786D6C504B01021400140006080800CC70623BFFEA85907E0000009D0000000B00000000000000000000000000B30400006662782F636E782E786D6C504B01021400140006080800CC70
310
623B4FEEA4082C0100001202000031000000000000000000000000005A0500006662782F39464131463745442D413632322D343644302D413938332D3331353338454246344243312F636F72652E786D6C504B01021400140006080800CC70623BAD7543B64E010000330300003000000000000000000000000000D5060000
310
6662782F39464131463745442D413632322D343644302D413938332D3331353338454246344243312F636E782E786D6C504B01021400140006080800CC70623B16AB87BA640500003C1000003400000000000000000000000000710800006662782F39464131463745442D413632322D343644302D413938332D3331353338
310
454246344243312F6F626A656374732E786D6C504B01021400140006080000CC70623B0000000000000000000000003500000000000000000000000000270E00006662782F39464131463745442D413632322D343644302D413938332D3331353338454246344243312F76657274696365732E62696E504B01021400140006
310
080800CC70623BF270F133060000000400000036000000000000000000000000007A0E00006662782F39464131463745442D413632322D343644302D413938332D3331353338454246344243312F747269616E676C65732E62696E504B01021400140006080000CC70623B0000000000000000000000003700000000000000
310
000000000000D40E00006662782F39464131463745442D413632322D343644302D413938332D3331353338454246344243312F617474726962757465732E62696E504B01021400140006080800CC70623B08DA0BD190000000410100003600000000000000000000000000290F00006662782F39464131463745442D413632
310
322D343644302D413938332D3331353338454246344243312F6469726563746F72792E786D6C504B01021400140006080800CC70623B0D6EF93BFE000000A00100003B000000000000000000000000000D1000006662782F39464131463745442D413632322D343644302D413938332D3331353338454246344243312F7265
310
736F75726365732F636F72652E786D6C504B0506000000000E000E0080040000641100000000
  0
XRECORD
  5
175
102
{ACAD_REACTORS
330
173
102
}
330
173
100
AcDbXrecord
280
     1
270
     1
271
     1
  0
XRECORD
  5
174
102
{ACAD_REACTORS
330
173
102
}
330
173
100
AcDbXrecord
280
     1
270
     1
271
     1
  0
XRECORD
  5
1FB
102
{ACAD_REACTORS
330
173
102
}
330
173
100
AcDbXrecord
280
     1
 70
     0
 90
1673772943
  1
ECE7A1D2-D628-4531-984C-D00F80459256
310
504B03040A0000080000CC70623B3DEE336E79000000790000001B0000006175746F6465736B2D64657369676E2D7061636B6167652E786D6C3C3F786D6C2076657273696F6E3D22312E302220656E636F64696E673D227574662D3822203F3E3C666F726D6174733E3C666F726D61743E687474703A2F2F736368656D612E
310
6175746F6465736B2E636F6D2F64657369676E2D7061636B6167652F323030393C2F666F726D61743E3C2F666F726D6174733E504B0304140006080800CC70623BD486FD9CA0000000F4000000130000005B436F6E74656E745F54797065735D2E786D6C7D8EC10E82300C865F65E91D8A1E8C310C0EEA1BF002731658846E
310
D98AC1B77784ABF1D8FE5FBFBF75BBCE937A534CCEB38643598122B6FEE978D0B0485F9C41B54DDD7D022595594E1A469170414C76A4D9A4D207E29CF43ECE46F218070CC6BECC4078ACAA135ACF422C856C0E68EA1BF5669944DDD7BCDE7B1F8E415D77AECB980613C2E4AC91FC167A2B244592486606FC29C8FD7F045B9A
310
EF7053A7E60B504B0304140006080800CC70623BD9DDAED0EC0000007C01000008000000636F72652E786D6C8D90416EC3201045AF82665B61836D9CD8C2444DD39CA01740405C94182C03558F5F9C3852BBEB6A467FFE9B197D7EF89E6EE8CB2CC17A37002D0820E394D7D68D03A478C17B4007C117EFE32F1B20272733C0
310
2A83E0E3E2D3BC49CABB685CCCAAF3DA6CA20CC14440EA969B0182FA34932C648AD911AEC52CD5558EA6A0CF2EC329598D1E47ACCEFBECC59A050463A7EA5833865FEBDD0E37353BE3EE8DBDE3F6786A48D375FBF6CC78B9C282473B3DEFABC5C86834888A900E538A49F5419B9EB47DD5BC907D4F082F57FB1F28CDFA9F50
310
B22ED6D5F6EE030B20687EE43E10BC5CB3C8E51E54AE6B6EE207504B0304140006080800CC70623B55019EA25F0000007C00000007000000636E782E786D6C4DCB3B0E80201045D1AD90E915ED2CF8AC45050C11660C8261F98AB1B07AC9C97D42D718D865D3E909258CFD00CCE24AC6E326A164D74DC0B4128928FF326038
310
472BA13128B1252AC747C6BAB984FC68F0B87FE8960A5C09FE86CFB69FBA01504B0304140006080800CC70623BA24EB22D72010000D40300000C0000006662782F636F72652E786D6CC5535B6E833010BC8AE5DF0A6C5E49888CA3A6694ED00B38E05014B091B1518EDFE511A5A9D228FD2A1F60CDEC7A67C6986DCE4D8D7A
310
69BA4AAB0C073EC548AA5C17952A33ECECD15B61B4E1CC686DBF9561A44423333CC098B3D268D7CE50AE9595CA02AA74216750749DB418E5352C32DCE59FB211BE70162ABA93DF8AFC244AE9073ED050C759670D0840D390E18DF9F1706664C23973AE2A66B62A605A75ACA4C13C4976E1364A12EF355A2EBD384AF65EFA96
310
BC7B8BED2EA6719AAE16FB8491A199335B351775B991C2CA02F390D2D40B028F861F41BCA68B7518BFD0D59A524686F29B26D7164F36B94AD9289CE54E6D1DE6010819891F6E21228B3AD1831EC219194284CF98F06DD01008846CC5A1BEF83801D4CBDC6A1303536877A57A513B0953A94FC707FDBE6064EA84A9E3E6E0FA
310
EE8CF0E9198F7784A316AA0413C2C2F2E0ECA0934D1AE6D05A69BCDE9E91D2A611F573361E38FC1375157F5752AE6B6DFE4B11990F88CCBF0719EE23FF02504B0304140006080800CC70623B408A7D3B7C0000009D0000000B0000006662782F636E782E786D6C4DCCD10A83201886E15B91FFDC552A92A0064DBC8F581632
310
D3703A76F9ABD1C18E3E78F878E5F0D9027ABBFCF2292AE86E2D20171F69F6715550CB827B40839639A5F2770314A7CD293819B45C73AAFB45B35BA61ACAA1C1C7E7855C58C15BC331339661262CC762340413D68D77DA5B42298546CBE6573AF60CEB2F504B0304140006080800CC70623B449FB9BD290100001202000031
310
0000006662782F36394639363044362D344446342D343946362D394244322D3234314243333846323333332F636F72652E786D6C8D515B6EC32010BC0AE22B55850D98B871848994463E412FE002495162B07854397EA176A4F62F3F2C9A9D991D587EB84F37F0AD7D30CEF6905418026DA553C65E7A98E219ED203808EE9D
310
8B7F6810D871D23D2C3014FCE25D9A57483A1BB58D19B54EE9151C43D0110279CB971E06F9A5A7B11A53CC8C70ADE6515EC78BAE4895DB992778883E0700CB907242D17643D7E2538BD869608875438BBAE38922CAC8F1BDD90DB4691A5E2F42C153326A951B95E398B3D1FE599322163C9AE9115F7A3D46ADA0A018778810
310
84E907617BDCEE297BC5BB3DC6BC2EF47FA234AB2745C9D8D8D035EE220B50105E2F0DC1954B9FB747187D9F9D8FA0CCDB042D5FA0C015C65B42DF78BD10F3F3B363CB56C7109DCFDFBBB97E662ED92EB62D13BC2E1BCAE5777DB9966D8A1F504B0304140006080800CC70623BAD7543B64E01000033030000300000006662
310
782F36394639363044362D344446342D343946362D394244322D3234314243333846323333332F636E782E786D6CD593CD6EC32010845F0571AD6CE3D48AD20813A9873E410FBD12D82434182C7EAAE6EDBB2424CD25871E7B41D6EC30B3FA84F9E67BB2E40B4234DE8DB46F1925E094D7C6ED479AD3AE5951B2113C789FEE
310
6C943839C1488B4C05DF079FE72A69D8C96C13AAD6B8631503449F83828872B949AC57D26200B826A308D316B4064D6E46FCDA41C05550DC9E483A00797BFD207EFB092A45DE9514C1BBD22178396BD39D891265658C238DEA00936C654E5E433CB65A26D9F6EDB5EBC14EBF49A45CB856E66048291F6939A9A81BB5C89177
310
38143CA680F4AA299D66A042CEB3354A2684DC9D8D178FE0D9B8B41CAAD720F880EE7EF93C0C18769E099ECC04D5A102C8049A8A05632F4DDF376CF1DE0F6BB65C2F8627B65A33C6BB62177CEBBDAD973006829F89F22E814B54F4BC2BE347F8AA8F681390B50FA73F804400B5F542E796F19FF974E7F78DB802FE05E20750
310
4B0304140006080800CC70623B8D05915C650500003B100000340000006662782F36394639363044362D344446342D343946362D394244322D3234314243333846323333332F6F626A656374732E786D6CAD575B6FA33814FE2B887D06429276DA1565D4266D158D3A339A6846FB502932E050B66023DB74D2FDF5FB190C01
310
9276B2973C046C8ECFF53B17071F77456EBD502133CEAE6CDF9DD81665314F32965ED995DA3A17B6F5310C04E7AA47665B8C14F4CAD6DB7618A48257A5D94AE89654B91AEDDEDDFC61C998326A5B714EA4BCB265FC440BE2924AF184CA6737218AB8E976E7FA6E4338649B0A523E8D98964450A6A029F619B8588D52FE7039
310
B1BD30F0F4F730D0FF866AF6369557DB33949F31A9088B0F848DD8CCFCF9F2767A76E99CCDE733677E3EF59D9BBB9BA5E37F984D16E78BC5E5F5ED25044B25C0C96822E8D60EEFE11B91C581D77CEA34368A1F5329E68CD1B8B61F16D63A1B8E092D294B10C78C4A48EB593D192E7DED9BDEE7995E1B91FDEDD3ACEA9FE831
310
6A756F9F7D4D79F4274C90A7A04248AA51D5F8C718DAE06FB2F75AC4796EBE65D22A88A22223B995679120E2D50E41AA49C260C046A35368846B0BECD0DFF3EBEB8AD4F835768F69B9ADF25C43D30E6B646F807FAA64AD59F61715C7A54127C4AACA98BA3006A9D792DAE165E0D59B61A01FB3A9F9D838D2DAE62445C86166
310
F37564E842E7DE6A69879FEEA2DD5AE7E371E1A5E025154AC307D06A03D73EB5978C58FFA4C8E9033066E0F3BD53BEC1F39F91BE7B55103791EDE6BBB991A2046172CB4581D8B893FA674DDA17A77B3B7C413D1B511FD2743BFF8A38F03A658705E3ADF8015C3A3417FF3D7E439FF591DA0B5F18BC20C1B8981957AE6392A3
310
F43C640C01D1A0B4728E2DD4F26DB4B3C3152A252A3B4E913CEC1C72F012782FF88EFF8637AA552DBEF76408E8A8DE9E50F9E1CB3A2DA0DB1B6039A893B56063DC5B3E3FFB5F72E67AB9FEB4AEC496C4F4C1149625DD662C53E89D7BF0F6151A046260D1337DFDC94502430F83B0EE07A130A224BCAD7DAE1D9FB6CD422FF6
310
920702629C4BB9AE79C12F243C6432A6794E18E5552BA56B431AAB5D91317302B2B071E86C3A42B1A02F999E24061403B5D0EB639195DA655DD3EBEAB4FB862DDF579F014AD0E73C22F99E28DA57FB98E75C6CA2D74D53086D600F4786E0FE3144B771A8A7B900F03594DB8A633CBC49B2EDB69228BB479CF863B5E807AAAB
310
23872F6DFEB4129B949CA33823F58830E86D65621E10047D9DB34D862E8EAC3C2ABC2F7B2C40D67CDFE01F5545B92105AF983AC54D93D69E56FB8E797F88913F898A9FEC705D3F9D1B54EC8426FB500D40A03BD0119B06E1B95DDC7EB8F6975367793EBD70E66733DFB9BC982F9CE564727731999F5D4ECFCE3B8D6A4DC2A0
310
6D50FD148437D110834A64C6CDDF57FBACB5C307A2A477DFE4939736CFEF2B175371E0E10CF0DD1D5C15654E0BCA14D1E87DD02FF93782A162C0A3D95F1524A52770F972BF1EE9809D13CE7DD599467F8ECE9ADD85CE85A34CD45355448C64F9E8A031DC2D596ACC6E5DD93D9B82DE2EF5CAF81363A8E47996A0DE24564A79
310
4115AACE09C55E14540231FDA13C319787134EBF34E3A022514E5B4D9E0826E25C02D5805B15ABE1BEF51B26383D445DD9E875EE33FE4C22DA16427D65A3BCA92CA6D28DD01DF5DC53330704308475351050232CCD31583787BA75774AFB06E5070DD0C8EF484E19968C5D83BA5B90B244D31E54D55A372320FE4786B7EA58
310
44E135AA5467CB7EA333A61683CC6A8C3257034C10CF46F40EF9F5BE59BE5BD30C3C72D235E95D10345C1D45445A5F0BB47E46A5EBE5570F9380B5FA629579952296A773720405982B9DE04011506178964401AA8BDF1FBF0A8EAB6861DD6580C0E38217056766716DAEB2D6FA0917D3E4116581EADB879C4E7CFFB11EFACD
310
3D641311495D92C8676CB409A72D18610D803CE8A626049E8EC1887CB5B44CC39883690DDA8399B4B9855B481E7D71D4A9D22F96E5BB73BF5793020C02137BF837504B0304140006080000CC70623B000000000000000000000000350000006662782F36394639363044362D344446342D343946362D394244322D32343142
310
43333846323333332F76657274696365732E62696E504B0304140006080800CC70623BF270F1330600000004000000360000006662782F36394639363044362D344446342D343946362D394244322D3234314243333846323333332F747269616E676C65732E62696E636660600000504B0304140006080000CC70623B0000
310
00000000000000000000370000006662782F36394639363044362D344446342D343946362D394244322D3234314243333846323333332F617474726962757465732E62696E504B0304140006080800CC70623B08DA0BD19000000041010000360000006662782F36394639363044362D344446342D343946362D394244322D
310
3234314243333846323333332F6469726563746F72792E786D6C858F410AC3201045AF22B36F53E9A60B35CBEEBAE80D244E44489C6234F4F835464A48035D0DF398FF9F8AF63D0E6CC63039F212F8F9020C7D47C6792B21C5FE7403D62A1188E2E60C98D7234A5830286103A55745067B9D86B8A3CF9C7F90C11DE607FB14
310
4396D7B6A82D282E9A152AD114D5EF2CB866EEE831B8EEA07A7BB5A8D7D61A2BAAEB7FD5F70921FF497D00504B0304140006080800CC70623BCA768048FE000000A00100003B0000006662782F36394639363044362D344446342D343946362D394244322D3234314243333846323333332F7265736F75726365732F636F72
310
652E786D6C8D50596E833010BD0A9ADFCA60D600328E9AA639412F609909B1126CE4A5EAF16B0295DABFFECC8CDEA2797AECF8353F924FB44E193D409E5248504B332A3D0D10FC95B4901C39B3C6F85F3248B49871801506CE266BC2B243D2688FDA47549B11775038871E12F988C7004EDE7016A9083E2ADC3D5D84BC8B09
310
D33C8D74D471E6BC8D0192EDC93A815B742658898E651BCB59086ADC356A8C3FD555A1055ED7E7E254D615792D0F075295F585746FF53B694EE78A565DD736979A65AB9933AFE69F8CD2A2F038022F28ED489E135A7CE4554F9BBEA85E68DB53CAB255FEC71496F19FA6A0B42F8B3DEE6673C0F318E4497096AD7DC5F52C33
310
EEB55BFE0D504B010214000A0000080000CC70623B3DEE336E79000000790000001B00000000000000000000000000000000006175746F6465736B2D64657369676E2D7061636B6167652E786D6C504B01021400140006080800CC70623BD486FD9CA0000000F40000001300000000000000000000000000B20000005B436F
310
6E74656E745F54797065735D2E786D6C504B01021400140006080800CC70623BD9DDAED0EC0000007C010000080000000000000000000000000083010000636F72652E786D6C504B01021400140006080800CC70623B55019EA25F0000007C000000070000000000000000000000000095020000636E782E786D6C504B0102
310
1400140006080800CC70623BA24EB22D72010000D40300000C00000000000000000000000000190300006662782F636F72652E786D6C504B01021400140006080800CC70623B408A7D3B7C0000009D0000000B00000000000000000000000000B50400006662782F636E782E786D6C504B01021400140006080800CC70623B
310
449FB9BD290100001202000031000000000000000000000000005A0500006662782F36394639363044362D344446342D343946362D394244322D3234314243333846323333332F636F72652E786D6C504B01021400140006080800CC70623BAD7543B64E010000330300003000000000000000000000000000D20600006662
310
782F36394639363044362D344446342D343946362D394244322D3234314243333846323333332F636E782E786D6C504B01021400140006080800CC70623B8D05915C650500003B10000034000000000000000000000000006E0800006662782F36394639363044362D344446342D343946362D394244322D32343142433338
310
46323333332F6F626A656374732E786D6C504B01021400140006080000CC70623B0000000000000000000000003500000000000000000000000000250E00006662782F36394639363044362D344446342D343946362D394244322D3234314243333846323333332F76657274696365732E62696E504B010214001400060808
310
00CC70623BF270F13306000000040000003600000000000000000000000000780E00006662782F36394639363044362D344446342D343946362D394244322D3234314243333846323333332F747269616E676C65732E62696E504B01021400140006080000CC70623B00000000000000000000000037000000000000000000
310
00000000D20E00006662782F36394639363044362D344446342D343946362D394244322D3234314243333846323333332F617474726962757465732E62696E504B01021400140006080800CC70623B08DA0BD190000000410100003600000000000000000000000000270F00006662782F36394639363044362D344446342D
310
343946362D394244322D3234314243333846323333332F6469726563746F72792E786D6C504B01021400140006080800CC70623BCA768048FE000000A00100003B000000000000000000000000000B1000006662782F36394639363044362D344446342D343946362D394244322D3234314243333846323333332F7265736F
310
75726365732F636F72652E786D6C504B0506000000000E000E0080040000621100000000
  0
XRECORD
  5
176
102
{ACAD_REACTORS
330
173
102
}
330
173
100
AcDbXrecord
280
     1
270
     1
271
     1
  0
XRECORD
  5
177
102
{ACAD_REACTORS
330
173
102
}
330
173
100
AcDbXrecord
280
     1
270
     1
271
     1
  0
CELLSTYLEMAP
  5
24B06
102
{ACAD_REACTORS
330
162
102
}
330
162
100
AcDbCellStyleMap
 90
        3
300
CELLSTYLE
  1
TABLEFORMAT_BEGIN
 90
        5
170
     1
 91
        0
 92
    32768
 62
   257
 93
        1
300
CONTENTFORMAT
  1
CONTENTFORMAT_BEGIN
 90
        0
 91
        0
 92
      512
 93
        0
300

 40
0.0
140
1.0
 94
        5
 62
     0
340
11
144
6.0
309
CONTENTFORMAT_END
171
     1
301
MARGIN
  1
CELLMARGIN_BEGIN
 40
1.5
 40
1.5
 40
1.5
 40
1.5
 40
4.5
 40
4.5
309
CELLMARGIN_END
 94
        6
 95
        1
302
GRIDFORMAT
  1
GRIDFORMAT_BEGIN
 90
        0
 91
        1
 62
     0
 92
       -2
340
14
 93
        0
 40
1.125
309
GRIDFORMAT_END
 95
        2
302
GRIDFORMAT
  1
GRIDFORMAT_BEGIN
 90
        0
 91
        1
 62
     0
 92
       -2
340
14
 93
        0
 40
1.125
309
GRIDFORMAT_END
 95
        4
302
GRIDFORMAT
  1
GRIDFORMAT_BEGIN
 90
        0
 91
        1
 62
     0
 92
       -2
340
14
 93
        0
 40
1.125
309
GRIDFORMAT_END
 95
        8
302
GRIDFORMAT
  1
GRIDFORMAT_BEGIN
 90
        0
 91
        1
 62
     0
 92
       -2
340
14
 93
        0
 40
1.125
309
GRIDFORMAT_END
 95
       16
302
GRIDFORMAT
  1
GRIDFORMAT_BEGIN
 90
        0
 91
        1
 62
     0
 92
       -2
340
14
 93
        0
 40
1.125
309
GRIDFORMAT_END
 95
       32
302
GRIDFORMAT
  1
GRIDFORMAT_BEGIN
 90
        0
 91
        1
 62
     0
 92
       -2
340
14
 93
        0
 40
1.125
309
GRIDFORMAT_END
309
TABLEFORMAT_END
  1
CELLSTYLE_BEGIN
 90
        1
 91
        1
300
_TITLE
309
CELLSTYLE_END
300
CELLSTYLE
  1
TABLEFORMAT_BEGIN
 90
        5
170
     1
 91
        0
 92
        0
 62
   257
 93
        1
300
CONTENTFORMAT
  1
CONTENTFORMAT_BEGIN
 90
        0
 91
        0
 92
      512
 93
        0
300

 40
0.0
140
1.0
 94
        5
 62
     0
340
11
144
4.5
309
CONTENTFORMAT_END
171
     1
301
MARGIN
  1
CELLMARGIN_BEGIN
 40
1.5
 40
1.5
 40
1.5
 40
1.5
 40
4.5
 40
4.5
309
CELLMARGIN_END
 94
        6
 95
        1
302
GRIDFORMAT
  1
GRIDFORMAT_BEGIN
 90
        0
 91
        1
 62
     0
 92
       -2
340
14
 93
        0
 40
1.125
309
GRIDFORMAT_END
 95
        2
302
GRIDFORMAT
  1
GRIDFORMAT_BEGIN
 90
        0
 91
        1
 62
     0
 92
       -2
340
14
 93
        0
 40
1.125
309
GRIDFORMAT_END
 95
        4
302
GRIDFORMAT
  1
GRIDFORMAT_BEGIN
 90
        0
 91
        1
 62
     0
 92
       -2
340
14
 93
        0
 40
1.125
309
GRIDFORMAT_END
 95
        8
302
GRIDFORMAT
  1
GRIDFORMAT_BEGIN
 90
        0
 91
        1
 62
     0
 92
       -2
340
14
 93
        0
 40
1.125
309
GRIDFORMAT_END
 95
       16
302
GRIDFORMAT
  1
GRIDFORMAT_BEGIN
 90
        0
 91
        1
 62
     0
 92
       -2
340
14
 93
        0
 40
1.125
309
GRIDFORMAT_END
 95
       32
302
GRIDFORMAT
  1
GRIDFORMAT_BEGIN
 90
        0
 91
        1
 62
     0
 92
       -2
340
14
 93
        0
 40
1.125
309
GRIDFORMAT_END
309
TABLEFORMAT_END
  1
CELLSTYLE_BEGIN
 90
        2
 91
        1
300
_HEADER
309
CELLSTYLE_END
300
CELLSTYLE
  1
TABLEFORMAT_BEGIN
 90
        5
170
     1
 91
        0
 92
        0
 62
   257
 93
        1
300
CONTENTFORMAT
  1
CONTENTFORMAT_BEGIN
 90
        0
 91
        0
 92
      512
 93
        0
300

 40
0.0
140
1.0
 94
        2
 62
     0
340
11
144
4.5
309
CONTENTFORMAT_END
171
     1
301
MARGIN
  1
CELLMARGIN_BEGIN
 40
1.5
 40
1.5
 40
1.5
 40
1.5
 40
4.5
 40
4.5
309
CELLMARGIN_END
 94
        6
 95
        1
302
GRIDFORMAT
  1
GRIDFORMAT_BEGIN
 90
        0
 91
        1
 62
     0
 92
       -2
340
14
 93
        0
 40
1.125
309
GRIDFORMAT_END
 95
        2
302
GRIDFORMAT
  1
GRIDFORMAT_BEGIN
 90
        0
 91
        1
 62
     0
 92
       -2
340
14
 93
        0
 40
1.125
309
GRIDFORMAT_END
 95
        4
302
GRIDFORMAT
  1
GRIDFORMAT_BEGIN
 90
        0
 91
        1
 62
     0
 92
       -2
340
14
 93
        0
 40
1.125
309
GRIDFORMAT_END
 95
        8
302
GRIDFORMAT
  1
GRIDFORMAT_BEGIN
 90
        0
 91
        1
 62
     0
 92
       -2
340
14
 93
        0
 40
1.125
309
GRIDFORMAT_END
 95
       16
302
GRIDFORMAT
  1
GRIDFORMAT_BEGIN
 90
        0
 91
        1
 62
     0
 92
       -2
340
14
 93
        0
 40
1.125
309
GRIDFORMAT_END
 95
       32
302
GRIDFORMAT
  1
GRIDFORMAT_BEGIN
 90
        0
 91
        1
 62
     0
 92
       -2
340
14
 93
        0
 40
1.125
309
GRIDFORMAT_END
309
TABLEFORMAT_END
  1
CELLSTYLE_BEGIN
 90
        3
 91
        2
300
_DATA
309
CELLSTYLE_END
  0
ENDSEC
  0
SECTION
  2
ACDSDATA
 70
     2
 71
     2
  0
ACDSSCHEMA
 90
        0
  1
AcDb_Thumbnail_Schema
  2
AcDbDs::ID
280
    10
 91
        8
  2
Thumbnail_Data
280
    15
 91
        0
101
ACDSRECORD
 95
        0
 90
        1
  2
AcDbDs::TreatedAsObjectData
280
     1
291
     1
101
ACDSRECORD
 95
        0
 90
        2
  2
AcDbDs::Legacy
280
     1
291
     1
101
ACDSRECORD
  1
AcDbDs::ID
 90
        3
  2
AcDs:Indexable
280
     1
291
     1
101
ACDSRECORD
  1
AcDbDs::ID
 90
        4
  2
AcDbDs::HandleAttribute
280
     7
282
     1
  0
ACDSSCHEMA
 90
        1
  1
AcDbDs::TreatedAsObjectDataSchema
  2
AcDbDs::TreatedAsObjectData
280
     1
 91
        0
  0
ACDSSCHEMA
 90
        2
  1
AcDbDs::LegacySchema
  2
AcDbDs::Legacy
280
     1
 91
        0
  0
ACDSSCHEMA
 90
        3
  1
AcDbDs::IndexedPropertySchema
  2
AcDs:Indexable
280
     1
 91
        0
  0
ACDSSCHEMA
 90
        4
  1
AcDbDs::HandleAttributeSchema
  2
AcDbDs::HandleAttribute
280
     7
 91
        1
284
     1
  0
ACDSRECORD
 90
        0
  2
AcDbDs::ID
280
    10
320
23FDA
  2
Thumbnail_Data
280
    15
 94
     1334
310
89504E470D0A1A0A0000000D4948445200000100000000B5080300000087DCD12600000300504C5445FFFFFF000000C8C8C80000000000000000000000000000000000000000000000000000330000660000990000CC0000FF0033000033330033660033990033CC0033FF0066000066330066660066990066CC0066FF0099
310
000099330099660099990099CC0099FF00CC0000CC3300CC6600CC9900CCCC00CCFF00FF0000FF3300FF6600FF9900FFCC00FFFF3300003300333300663300993300CC3300FF3333003333333333663333993333CC3333FF3366003366333366663366993366CC3366FF3399003399333399663399993399CC3399FF33CC00
310
33CC3333CC6633CC9933CCCC33CCFF33FF0033FF3333FF6633FF9933FFCC33FFFF6600006600336600666600996600CC6600FF6633006633336633666633996633CC6633FF6666006666336666666666996666CC6666FF6699006699336699666699996699CC6699FF66CC0066CC3366CC6666CC9966CCCC66CCFF66FF0066
310
FF3366FF6666FF9966FFCC66FFFF9900009900339900669900999900CC9900FF9933009933339933669933999933CC9933FF9966009966339966669966999966CC9966FF9999009999339999669999999999CC9999FF99CC0099CC3399CC6699CC9999CCCC99CCFF99FF0099FF3399FF6699FF9999FFCC99FFFFCC0000CC00
310
33CC0066CC0099CC00CCCC00FFCC3300CC3333CC3366CC3399CC33CCCC33FFCC6600CC6633CC6666CC6699CC66CCCC66FFCC9900CC9933CC9966CC9999CC99CCCC99FFCCCC00CCCC33CCCC66CCCC99CCCCCCCCCCFFCCFF00CCFF33CCFF66CCFF99CCFFCCCCFFFFFF0000FF0033FF0066FF0099FF00CCFF00FFFF3300FF3333
310
FF3366FF3399FF33CCFF33FFFF6600FF6633FF6666FF6699FF66CCFF66FFFF9900FF9933FF9966FF9999FF99CCFF99FFFFCC00FFCC33FFCC66FFCC99FFCCCCFFCCFFFFFF00FFFF33FFFF66FFFF99FFFFCCFFFFFF0000000D0D0D1A1A1A2828283535354343435050505D5D5D6B6B6B787878868686939393A1A1A1AEAEAEBB
310
BBBBC9C9C9D6D6D6E4E4E4F1F1F1FFFFFF000000000000000000000000000000000000000000000000000000000000B0E2D235000001F14944415478DAEDDD496E8330004051DFFF50DEE4265EE710053394A6210442C0C0FB52AB740122CF434095DA10244992244992244952EE76823E0338C11802000000000000000000
310
0000000080F33C0E6F0670F871050000000000000000B82AC00D000000000000000000008052001200004F8B83EFD704A8AABF950B10BBAB7C7798E6CE8019A7DE03A0BABC5417DB514A5BB733403540D5E0C51A205C13A09E01ED4C6800EECB1A392E4E1E57C21E90061B765E0B0B5A7C5C7100792EE48DBBAD791942F735
310
6713ECCF10C64EBB3FC0C3C5A70C11FBEBED7F6A7C1600B4870D4ED59DB8841990AF2FFDBE7C7147B704206FB2F1C5C409852C813858026333A05B0AF397407BF49319500E40EC8778E34D301671233400B8AFFC3138F939B80820AC3A0352360847BA110AEBDE0936D731B5097EE771786F807FCF0271E30910775F020FBB
310
7BDC7806940130B88E8F9E898F09D0DDABFEFDE4FEB0F0DD8FC11266C0FB6FABF82530E37DAD37F025CD80F111993D118EB9099613000000000000000000000000000000000000000000000000000000000000000000000000000000000000000000808D0036FF73B9002C8193CE000096C0F5660000374200000000000000
310
000045025CFDFF0C85C30700000000000000000000000000004EF438FCE55FBC489224499224499274CA7E0066736A4592B003FA0000000049454E44AE426082
  0
ACDSRECORD
 90
        0
  2
AcDbDs::ID
280
    10
320
22
  2
Thumbnail_Data
280
    15
 94
     2761
310
89504E470D0A1A0A0000000D49484452000001000000007408030000005D681C3700000300504C5445000000000000C8C8C80000000000000000000000000000000000000000000000000000330000660000990000CC0000FF0033000033330033660033990033CC0033FF0066000066330066660066990066CC0066FF0099
310
000099330099660099990099CC0099FF00CC0000CC3300CC6600CC9900CCCC00CCFF00FF0000FF3300FF6600FF9900FFCC00FFFF3300003300333300663300993300CC3300FF3333003333333333663333993333CC3333FF3366003366333366663366993366CC3366FF3399003399333399663399993399CC3399FF33CC00
310
33CC3333CC6633CC9933CCCC33CCFF33FF0033FF3333FF6633FF9933FFCC33FFFF6600006600336600666600996600CC6600FF6633006633336633666633996633CC6633FF6666006666336666666666996666CC6666FF6699006699336699666699996699CC6699FF66CC0066CC3366CC6666CC9966CCCC66CCFF66FF0066
310
FF3366FF6666FF9966FFCC66FFFF9900009900339900669900999900CC9900FF9933009933339933669933999933CC9933FF9966009966339966669966999966CC9966FF9999009999339999669999999999CC9999FF99CC0099CC3399CC6699CC9999CCCC99CCFF99FF0099FF3399FF6699FF9999FFCC99FFFFCC0000CC00
310
33CC0066CC0099CC00CCCC00FFCC3300CC3333CC3366CC3399CC33CCCC33FFCC6600CC6633CC6666CC6699CC66CCCC66FFCC9900CC9933CC9966CC9999CC99CCCC99FFCCCC00CCCC33CCCC66CCCC99CCCCCCCCCCFFCCFF00CCFF33CCFF66CCFF99CCFFCCCCFFFFFF0000FF0033FF0066FF0099FF00CCFF00FFFF3300FF3333
310
FF3366FF3399FF33CCFF33FFFF6600FF6633FF6666FF6699FF66CCFF66FFFF9900FF9933FF9966FF9999FF99CCFF99FFFFCC00FFCC33FFCC66FFCC99FFCCCCFFCCFFFFFF00FFFF33FFFF66FFFF99FFFFCCFFFFFF0000000D0D0D1A1A1A2828283535354343435050505D5D5D6B6B6B787878868686939393A1A1A1AEAEAEBB
310
BBBBC9C9C9D6D6D6E4E4E4F1F1F1FFFFFF00000000000000000000000000000000000000000000000000000000000008F1915C000001BE4944415478DAEDDD4B1282300C80E1DEFF50D9782056D92BAF5A5E43A19414FA4774E10C8E7C4D93E8429D3B109F8784CB15F95EF9216F1300000000000000000000000000000000
310
00000000000000000000002E09550000D808091EEB04F845FB501A80F8F77664754E65407BF1C565804CA2BF06BBB0C9006DEFEA5747336540CCD9F7038CEBDEE5E700D02484A69D6D9401E3B20D0092109A76B655119C0274C9B076F892717C0B4CCA8CF87A181CED33E500AC871B154E020C17BB052C36008BE2A3B3B509
310
53607798896A83B27E884D11FC03C87E17389D01BEDC4A615D60DC0212B705DC4E09D80608278DCD1A6306E07BE17234BAB50B88D124A8EA028026CF1C2031A7DB4D825D0B1EB64055A370DF7C24CC80BA46E17E0B74375FA2EC12C0A2062CA73BB1CB002B00771D405AD8000433EEF12E18715185B7C13E03DCD90CB84068
310
3E679A7F2758DD16484959BFCECB8F8D4F9904C980720300000000000000000000000000000000000000000000000000000000000000000000000000000000000000000000000000000000000020DB2B5BFE643E00005003DE970100B0056ACB00009804010000000000000000000000A01C8017FEE5E61740AD1CE022FAC2
310
C30000000049454E44AE426082454E44AE4260822990CD82A23BFE8F08789F02056F4E8A4F7A25A1450A580106DA0902000000000000000000000000000000000000000000000000000000000000000000000000000000000000000000000000000000409F00BFDF1CA687CB413EEC0000000049454E44AE42608282B8718A
310
1240AF1630955A52D303D05DA5FA7C120F17985A1630C520286F077921299C44B8F83D03581A8A1640F91AB803E00F2751DC56A17B0BB0FDDE5880DD0F65FA4E2A94029604098E2E5003E0EDDD20A0E002E7E802FC01983D6176371C6D267B5082602A83154700F7D2E0DDB920EE956065D283218018FEB783210C00F1CA6F
310
2D60E72E9A30005A2B6ADC00D4E703F2A0081004B73342B1FFDBC5251E00B2F2BF0AC0DD4D8F045B0035DFCF0184FB0AC202B85F08B1581B6C02A09678014801E0360BD0CEBD124E3583E096057601D4AA447600F65C20B77CC80D1289865271DE040A80103FB56CBF49FC32C202A0DCED87FD85B777158203E0BDDE1C8E46
310
702E60FF7DD4C6005754C30188B18F5CB32B00CBDE40E8410066A7800760770D600150E6963276EDDCF4FBD5082E0886F963DF9C7A02F01AB50F600EAA0178D7F2004CF31DCE02424BDD367A0060F2B6B0CF63381E2B008A7DD3222FF8D30C892F85490C0BC002D0F976F969471980DDAFFC155836163000740DE0F9FE65E6
310
373BFD108EAC2C38F10000000049454E44AE426082426082F97377C1559E6F06405FE3A1805FE260BA2B7293E8EEE0F53AA6D0D1A3013100880B13D72B371D00AEAEC13B34C003F0672E7069F495AE8200749A38D18C580F00D600CA1124D2F5CB7E630154A134BEC1009003E2D802693F78B2B1EF9802803527FEEE0CAAA6
310
067F743DC906548D17CE39442AB9FF5DDEE0CA32F4BC74DF927E0F005E9CF4261F5C2EC837659217A8828CAB9D020E809438D14D056B6234E61B4135D31470B7A2582E50F599003705A476D802C02BEE1D40D303203596EF0660119405F0C008A2DB0FABF70CE0811B4CF3BE1D03689CF2AF1E404E5D779206347D1AA04CDF
310
47AD024058E24EA94C05709F0B5495617B301200CC3B0578F90355E70F6C9BFEC50996D00095006049003F00206BA372ACF2F60754A3F6075032C4396949004124980030CEE4C4D3EE9106380AB46C08793B442A331280282501F0350F0763060D182E883E02A040CD262E19C20E00CC3805B0473C8081B2F84B95AC0C4570
310
7B3D4D0AE0650DE87583D8FB4559957844A54B01C84E86149437827D25B121004974B03000197604C02AA6C11900E4AAEAC70168ABAF74FAFB7769001C0ABB8607601605A01C7DDBF8B6F27E005C185C14801866FBFC6D651D00D4A200DA2F1C50FC541AC0A374A7782ED0F487814F6C0017E37DE35A1C80D1CF6A3E135529
310
0D69A603A8EB5A00FCB2521E00C04C00E2CDD216C02F2763A780A488DAFDB3959E8FCCFC175C030024E59B0500895B42CAB1017D8BEA74E3BFBEBED037BE6600C0BBC066000092DDBA051402F03B914C0D081B1208FDCB52680A18D9ED350300D92C6D4C0BE08906049BA5549B95E82822F200A8A31000FB37D2A2EF2C0078
310
13BBAC2B960D854B02787537E7332F00EDB73E745C136FA50530F4E65D605412C02211D52B81503F80723660CEC2C2B81DD013364AAE02C01B64F6EDE8871C72C821871C72C8219F2AFF036EA05C434333486F0000000049454E44AE426082C611EEA204450000000049454E44AE4260826C369B3FDD814A7C34F1F13F5D76
310
1786CC97B901583FAD9F9EBA23C44374DD657739BBF8DC003C9DAB0820028800660EC07BBFDE1BAED71B0836FE3C4F006BEFF1D721F0D1042ABFD9AC83DB4700707497F134BB7900540F4677A831D6F305DA7A83007C06B63CBE700AB0C61C9C08CC6F22B4F6768E205ED6D8F0C1E6D78148FF7AF120F0985D17C06A616D37
310
C93AF196BF095D00F35FC6D54753992180BACEB2AAAA795DD54D53D515C4B38A433CAB9ABAE143CB0747019D616E00DC1BD949CA24C3C0100685F959C0A37F3718151515151575DBFA1FFD489BAEDD3066680000000049454E44AE426082
  0
ENDSEC
  0
EOF
